img image001 image001 image001 image001 image001 image001 image001 image001 image001 image001 image001 image001 image001 image001 image001

Planets Sun Sun Sun
Статистика раздачи
Автор: Снежана | Размер: 4.35 ГБ | Добавлен: 25 июл 2013
Раздают: 6    Качают: 20
Скачать торрент
Скачать торрент
Описание торрента

СообщениеДобавлено: 25 июл 2013 

#77

Страна: Россия
Год выпуска: 2012
Производство: 2В
Жанр: мелодрама, детектив
Продолжительность: 8 х ~ 00:42:00
Режиссёр: Дмитрий Кузьмин

В ролях: Анна Снаткина, Екатерина Вуличенко, Андрей Чернышов, Кирилл Гребенщиков, Никита Емшанов, Вадим Андреев, Наталья Гвоздикова, Юлия Такшина, Ангелина Коршунова, Арсений Мурзин...

Описание: Катя Шебетина неожиданно получает сообщение из Америки: бывший одноклассник умер и оставил ей огромное наследство.
До этого жизнь Кати мало отличалась от жизни сотен других женщин: комнатушка в общежитии, любимый, который постоянно изменяет, вечно пьяный отец, раньше времени постаревшая мать, старшая сестра с двумя детьми. Весть о наследстве разлетается по всему городку.
Дальше события развиваются еще стремительнее. Катя узнает, что жив ее ребенок, которого она считала умершим при родах. Ему срочно нужна дорогостоящая операция — наследство придется очень кстати. Но не все так просто. Катин ухажер, уголовник Пашкин, пытается помешать ей уехать в Америку всеми возможными способами. Но ради сына Катя готова на все, даже на преступление.






Исходник: 2хDVD9 R5
Качество: DVDRip-AVC
Формат: MKV
Дополнительно: Раздача рассчитана для записи на один диск DVD5

Видео: 720x424 -> 768х424 (16:9), 25 fps, H264 ~ 1385 kbps avg, 0.181 bit/pixel
Аудио: 48 kHz, AC3, 6 ch, 448.00 kbps

Раздача от:
Общее
Полное имя : Русская наследница.mkv
Формат : Matroska
Версия формата : Version 2
Размер файла : 548 Мбайт
Продолжительность : 41 м.
Общий поток : 1834 Кбит/сек
Дата кодирования : UTC 2012-08-14 21:17:02
Программа кодирования : mkvmerge v5.0.1 ('Es ist Sommer') built on Nov 6 2011 16:23:40
Библиотека кодирования : libebml v1.2.2 + libmatroska v1.3.0

Видео
Идентификатор : 1
Формат : AVC
Формат/Информация : Advanced Video Codec
Профиль формата : High@L4.1
Параметр CABAC формата : Да
Параметр ReFrames формата : 11 кадров
Идентификатор кодека : V_MPEG4/ISO/AVC
Продолжительность : 41 м.
Битрейт : 1385 Кбит/сек
Ширина : 720 пикселей
Высота : 424 пикселя
Соотношение сторон : 16:9
Соотношение сторон в оригинале : 16:9
Частота кадров : 25,000 кадров/сек
Цветовое пространство : YUV
Субдискретизация насыщенности : 4:2:0
Битовая глубина : 8 бит
Тип развёртки : Прогрессивная
Бит/(Пиксели*Кадры) : 0.181
Размер потока : 403 Мбайт (74%)
Библиотека кодирования : x264 core 119 r2106 07efeb4
Настройки программы : cabac=1 / ref=11 / deblock=1:0:0 / analyse=0x3:0x113 / me=umh / subme=10 / psy=1 / psy_rd=1.00:0.20 / mixed_ref=1 / me_range=32 / chroma_me=1 / trellis=2 / 8x8dct=1 / cqm=0 / deadzone=21,11 / fast_pskip=0 / chroma_qp_offset=-3 / threads=6 / sliced_threads=0 / nr=0 / decimate=0 / interlaced=0 / bluray_compat=0 / constrained_intra=0 / bframes=8 / b_pyramid=2 / b_adapt=2 / b_bias=0 / direct=3 / weightb=1 / open_gop=0 / weightp=2 / keyint=250 / keyint_min=25 / scenecut=40 / intra_refresh=0 / rc_lookahead=60 / rc=2pass / mbtree=1 / bitrate=1385 / ratetol=1.0 / qcomp=0.60 / qpmin=0 / qpmax=69 / qpstep=4 / cplxblur=20.0 / qblur=0.5 / ip_ratio=1.40 / aq=1:1.00
Default : Да
Forced : Нет

Аудио
Идентификатор : 2
Формат : AC-3
Формат/Информация : Audio Coding 3
Расширение режима : CM (complete main)
Идентификатор кодека : A_AC3
Продолжительность : 41 м.
Вид битрейта : Постоянный
Битрейт : 448 Кбит/сек
Каналы : 6 каналов
Расположение каналов : Front: L C R, Side: L R, LFE
Частота : 48,0 КГц
Битовая глубина : 16 бит
Метод сжатия : С потерями
Размер потока : 134 Мбайт (24%)
Default : Да
Forced : Нет




   Похожие торренты   Торрент   Размер 
В этой теме нет новых непрочитанных сообщений. Русская наследница [01-08 из 08] (2012) DVDRip от Youtracker

125 | 18

4.35 ГБ

В этой теме нет новых непрочитанных сообщений. Русская наследница [01-08 из 08] (2012) 2xDVD9 от Youtracker | лицензия

39 | 2

10.93 ГБ

В этой теме нет новых непрочитанных сообщений. Русская наследница [01-08 из 08] (2012) DVB

200 | 9

13.47 ГБ

В этой теме нет новых непрочитанных сообщений. Наследница [01-04 из 4] (2011) DVDRip от Generalfilm

18 | 7

1.37 ГБ

В этой теме нет новых непрочитанных сообщений. Наследница по прямой (1982) DVDRip

2 | 4

1.46 ГБ

В этой теме нет новых непрочитанных сообщений. Наследница [01-04 из 04] (2011) DVDRip от Jonni3009

8 | 6

2.88 ГБ

В этой теме нет новых непрочитанных сообщений. Наследница / The Beneficiary (1997) DVDRip от ExKinoRay | P2

256 | 27

1.46 ГБ




Вы не можете начинать темы
Вы не можете отвечать на сообщения
Вы не можете редактировать свои сообщения
Вы не можете удалять свои сообщения
Вы не можете добавлять вложения

Перейти:  
Для Мосгорсуда, Роскомнадзора и рекламодателей: mosgorsud-torrent[собачка]yandex.ru
 Вход
ppkBB3cker v.2 © 2008-2014 @ PPK
[ Time : 0.048s | 16 Queries | GZIP : Off ]

Торрент трекер RUTOR.IN, Не можете зайти на rutor.org? Какой новый адрес рутор? Какое зеркало рутор? Не работает rutor.org и зеркала? Тогда наш торрент специально для вас. Rutor.in неофициальное зеркало rutor. В случае если у Вас заблокирован rutor или вдруг Вы не можете на него зайти, то Вы без труда сможете скачать бесплатно и без рекламы последние новинки кино, игр, сериалов и прочего у нас, на Rutor.in. Не нужно использовать прокси, чтобы зайти на рутор, достаточно воспользоваться нашим ресурсом. Все новые фильмы, игры, сериалы, книги и музыка за 2013 и 2014 годы через торрент бесплатно. Скачивайте фильмы в хорошем качестве, игры для пк, xbox, playstation без регистрации. У нас вы найдете новые Зарубежные сериалы и Русские сериалы 2013, 2014, 2015 годов. Оставайтесь с нами, качайте любимые фильмы, игры, сериалы, книги и музыку.
cron