img image001 image001 image001 image001 image001 image001 image001 image001 image001 image001 image001 image001 image001 image001 image001

Planets Sun Sun Sun
Статистика раздачи
Автор: Снежана | Размер: 1.18 ГБ | Добавлен: 25 июл 2013
Раздают: 1    Качают: 5
Скачать торрент
Скачать торрент
Описание торрента

СообщениеДобавлено: 25 июл 2013 

#77
Информация о фильме
Название: Байки из склепа
Оригинальное название: Tales from the crypt
Год выпуска: 1989
Страна: США
Жанр: ужасы, черная комедия
Продолжительность: 30 минут (эпизод)
Перевод: Любительский одноголосый закадровый [RussianGuy27]
Русские субтитры: нет
Режиссёр: Уолтер Хилл

В ролях: Уильям Сэдлер, Маршалл Белл, Джо Пантольяно, Лиа Томпсон, Бретт Каллен, Аманда Пламмер, Стивен Шеллен, М. Эммет Уолш, Деми Мур, Мигель Феррер, Игги Поп, Патриция Аркетт, Грейс Забриски

Описание: «Байки из склепа» — телесериал, созданный по мотивам комиксов Уильяма М. Гейнса, составленный из более чем полусотни сюжетов, представляющих собой короткие страшно юморные истории, рассказанные от лица симпатичного обитателя склепа, сопровождаемые его едкими, зловонными комментариями.

В основе сериала лежат отличные друг от друга истории, но объединённые одной темой — людьми, которые совершают, как правило, «плохие» и «нехорошие» поступки и, в результате совершения этих поступков, поплатившихся за их совершение.

Сэмпл: http://multi-up.com/750963
Качество: DVDRip
Формат: AVI
Видео кодек: XviD
Аудио кодек: MP3
Видео: 576:448 (4:2:0), 23.976 fps, 1286 kbps avg, 0.125 bit/pixel
Аудио: 48 kHz, mp3 (2 ch), 128.00 kbps avg | Русский | RussianGuy27
Аудио 2: 48 kHz, mp3 (2 ch), 144.00 kbps avg | Английский | Оригинал

Complete name : D:Tales from the crypt_RUSSIANGUY27_season1Tales from the crypt s01_e05.avi
Format : AVI
Format/Info : Audio Video Interleave
File size : 202 MiB
Duration : 28mn 38s
Overall bit rate : 988 Kbps
Writing application : VirtualDubMod 1.5.10.2 (build 2540/release)
Writing library : VirtualDubMod build 2540/release

Video
ID : 0
Format : MPEG-4 Visual
Format profile : Simple@L3
Format settings, BVOP : Yes
Format settings, QPel : No
Format settings, GMC : No warppoints
Format settings, Matrix : Default (H.263)
Muxing mode : Packed bitstream
Codec ID : XVID
Codec ID/Hint : XviD
Duration : 28mn 38s
Bit rate : 716 Kbps
Width : 576 pixels
Height : 432 pixels
Display aspect ratio : 4:3
Frame rate : 23.976 fps
Color space : YUV
Chroma subsampling : 4:2:0
Bit depth : 8 bits
Scan type : Progressive
Bits/(Pixel*Frame) : 0.120
Stream size : 147 MiB (72%)
Writing library : XviD 1.1.0 Beta1 (UTC 2005-01-16)

Audio #1
ID : 1
Format : MPEG Audio
Format version : Version 1
Format profile : Layer 3
Mode : Joint stereo
Mode extension : MS Stereo
Codec ID : 55
Codec ID/Hint : MP3
Duration : 28mn 38s
Bit rate mode : Constant
Bit rate : 128 Kbps
Channel(s) : 2 channels
Sampling rate : 48.0 KHz
Stream size : 26.2 MiB (13%)
Alignment : Aligned on interleaves
Interleave, duration : 42 ms (1.00 video frame)
Interleave, preload duration : 504 ms

Audio #2
ID : 2
Format : MPEG Audio
Format version : Version 1
Format profile : Layer 3
Mode : Joint stereo
Codec ID : 55
Codec ID/Hint : MP3
Duration : 28mn 38s
Bit rate mode : Variable
Bit rate : 127 Kbps
Minimum bit rate : 32.0 Kbps
Channel(s) : 2 channels
Sampling rate : 48.0 KHz
Stream size : 26.0 MiB (13%)
Alignment : Aligned on interleaves
Interleave, duration : 24 ms (0.58 video frame)
Interleave, preload duration : 515 ms
Writing library : LAME3.93
Encoding settings : -m j -V 2 -q 2 -lowpass 19.7 --vbr-old -b 32

Эпизод 1:
The man who was Death (Несущий смерть)
Эпизод 2:
And all through the house (Полночная тишь)
Эпизод 3:
Dig that cat... he's real gone (Закопайте этого кота... Наконец-то окочурился!)
Эпизод 4:
Only sin deep (Красота не вечна)
Эпизод 5:
Lover come hack to me (Любимая, приди и топором меня заруби!)
Эпизод 6:
Collection completed (Для полноты коллекции)






Релиз от:



   Похожие торренты   Торрент   Размер 
В этой теме нет новых непрочитанных сообщений. Байки из склепа / Tales from the Crypt [S01-02] (1989-1990) DVDRip | A

8 | 25

7.67 ГБ

В этой теме нет новых непрочитанных сообщений. Байки из Склепа [S01-S04] / Tales From The Crypt (1989 - 1992) DVDRip

0 | 1

14.63 ГБ

В этой теме нет новых непрочитанных сообщений. Байки из склепа / Tales From The Crypt [S01] (1989) DVDRip от Brazzass

129 | 17

3.06 ГБ

В этой теме нет новых непрочитанных сообщений. Байки из склепа / Tales from the Crypt [S01-07] (1989-1996) DVDRip/VHSRip

344 | 111

22.5 ГБ

В этой теме нет новых непрочитанных сообщений. Байки из склепа. Антология / Tales From The Crypt. Anthology [S01-07] (1989-2002) DVDRip | P, P2, A

150 | 229

61.42 ГБ

В этой теме нет новых непрочитанных сообщений. Байки из склепа / Tales from the Crypt (1972) DVDRip

11 | 26

1.41 ГБ

В этой теме нет новых непрочитанных сообщений. Байки из склепа / Tales From The Crypt [S06] (1994) DVDRip от Brazzass

19 | 8

6.39 ГБ




Вы не можете начинать темы
Вы не можете отвечать на сообщения
Вы не можете редактировать свои сообщения
Вы не можете удалять свои сообщения
Вы не можете добавлять вложения

Перейти:  
Для Мосгорсуда, Роскомнадзора и рекламодателей: mosgorsud-torrent[собачка]yandex.ru
 Вход
ppkBB3cker v.2 © 2008-2014 @ PPK
[ Time : 0.071s | 15 Queries | GZIP : Off ]

Торрент трекер RUTOR.IN, Не можете зайти на rutor.org? Какой новый адрес рутор? Какое зеркало рутор? Не работает rutor.org и зеркала? Тогда наш торрент специально для вас. Rutor.in неофициальное зеркало rutor. В случае если у Вас заблокирован rutor или вдруг Вы не можете на него зайти, то Вы без труда сможете скачать бесплатно и без рекламы последние новинки кино, игр, сериалов и прочего у нас, на Rutor.in. Не нужно использовать прокси, чтобы зайти на рутор, достаточно воспользоваться нашим ресурсом. Все новые фильмы, игры, сериалы, книги и музыка за 2013 и 2014 годы через торрент бесплатно. Скачивайте фильмы в хорошем качестве, игры для пк, xbox, playstation без регистрации. У нас вы найдете новые Зарубежные сериалы и Русские сериалы 2013, 2014, 2015 годов. Оставайтесь с нами, качайте любимые фильмы, игры, сериалы, книги и музыку.