img image001 image001 image001 image001 image001 image001 image001 image001 image001 image001 image001 image001 image001 image001 image001

Planets Sun Sun Sun
Статистика раздачи
Автор: Снежана | Размер: 2.1 ГБ | Добавлен: 25 июл 2013
Раздают: 184    Качают: 14
Скачать торрент
Скачать торрент
Описание торрента

СообщениеДобавлено: 25 июл 2013 

#77
Год выпуска: 2012
Производство: Россия / Студия Паламеда
Жанр: Мелодрама, комедия
Продолжительность: 00:44:07
Субтитры: Нет

Режиссёр: Владимир Тумаев

В ролях: Юлия Кадушкевич, Павел Новиков, Людмила Полякова, Вероника Пляшкевич, Андрей Сенькин

Описание: У юной красавицы Леси редкий дар: она умеет лечить людей, исцеляя даже те болезни, с которыми не справляется современная медицина. Дар у Леси наследственный: знахарками были и ее покойная мать, и бабушка, с которой Леся живет в старом деревенском доме.Однажды в деревню приезжает богатый бизнесмен Аркадий, отчаявшийся вылечить свою травму. Леся справляется с его болезнью. Аркадий и Леся влюбляются друг в друга, и Аркадий делает героине предложение.Казалось бы, судьба Леси счастливо решена: жизнь в городе, в роскошной квартире, с любящем мужем… Но Лесина бабушка в отчаянии. Она единственная знает: дар Леси в городе пропадет


Сэмпл: http://multi-up.com/751300

Качество: SATRip
Формат: AVI
Видео кодек: DivX
Аудио кодек: MP3
Видео: MPEG4, DivX 5, 704x384 (16/9), 25.000 fps, 1 501 Kbps (0.222 bit/pixel)
Аудио: MP3, 48.0 KHz, 2 ch, 128 Kbps, CBR
Реклама отсутствует!
General
Complete name : I:ЗАКАЧКИZnaharkaZnaharka.01.seriya.2012.SATRip.avi
Format : AVI
Format/Info : Audio Video Interleave
File size : 518 MiB
Duration : 44mn 7s
Overall bit rate : 1 642 Kbps
Writing library : Boilsoft AVI tool build 1/release

Video
ID : 0
Format : MPEG-4 Visual
Format profile : Simple@L3
Format settings, BVOP : 1
Format settings, QPel : No
Format settings, GMC : No warppoints
Format settings, Matrix : Default (H.263)
Codec ID : DX50
Codec ID/Hint : DivX 5
Duration : 44mn 7s
Bit rate : 1 501 Kbps
Width : 704 pixels
Height : 384 pixels
Display aspect ratio : 16:9
Frame rate : 25.000 fps
Color space : YUV
Chroma subsampling : 4:2:0
Bit depth : 8 bits
Scan type : Progressive
Compression mode : Lossy
Bits/(Pixel*Frame) : 0.222
Stream size : 474 MiB (91%)
Writing library : XviD 1.2.1 (UTC 2008-12-04)

Audio
ID : 1
Format : MPEG Audio
Format version : Version 1
Format profile : Layer 3
Mode : Joint stereo
Mode extension : MS Stereo
Codec ID : 55
Codec ID/Hint : MP3
Duration : 44mn 7s
Bit rate mode : Constant
Bit rate : 128 Kbps
Channel(s) : 2 channels
Sampling rate : 48.0 KHz
Compression mode : Lossy
Stream size : 40.4 MiB (8%)
Alignment : Aligned on interleaves
Interleave, duration : 24 ms (0.60 video frame)
Interleave, preload duration : 504 ms
Writing library : LAME3.98.2









   Похожие торренты   Торрент   Размер 
В этой теме нет новых непрочитанных сообщений. ХII Национальный фестиваль белорусской песни и поэзии Молодечно-2012 / Маладзечна-2012 (2012) SATRip от AND01AND

0 | 2

4.97 ГБ

В этой теме нет новых непрочитанных сообщений. Легкая атлетика. Бриллиантовая Лига 2012 / Diamond League 2012. Этап 6. Нью-Йорк (США) (2012) SATRip

0 | 2

1.62 ГБ

В этой теме нет новых непрочитанных сообщений. Легкая атлетика. Бриллиантовая Лига 2012 / Diamond League 2012. Этап 3. Рим (Италия) (2012) SATRip

0 | 9

1.76 ГБ

В этой теме нет новых непрочитанных сообщений. Легкая атлетика. Бриллиантовая Лига 2012 / Diamond League 2012. Этап 4. Юджин (США) (2012) SATRip

26 | 6

1.71 ГБ

В этой теме нет новых непрочитанных сообщений. КВН-2012. Кубок президента Украины. Второй полуфинал [эфир от 20.10.2012] (2012) SATRip от РиперАМ

0 | 2

1.59 ГБ

В этой теме нет новых непрочитанных сообщений. Чемпионат мира по ралли 2012. Этап 02 - Монте Карло / WRC 2012. Round 02 - Monte Carlo. (2012) SATRip

0 | 3

323.67 МБ

В этой теме нет новых непрочитанных сообщений. Легкая атлетика. Бриллиантовая Лига 2012 / Diamond League 2012. Этап 5. Осло (Норвегия) (2012) SATRip

0 | 2

1.73 ГБ




Вы не можете начинать темы
Вы не можете отвечать на сообщения
Вы не можете редактировать свои сообщения
Вы не можете удалять свои сообщения
Вы не можете добавлять вложения

Перейти:  
Для Мосгорсуда, Роскомнадзора и рекламодателей: mosgorsud-torrent[собачка]yandex.ru
 Вход
ppkBB3cker v.2 © 2008-2014 @ PPK
[ Time : 0.029s | 15 Queries | GZIP : Off ]

Торрент трекер RUTOR.IN, Не можете зайти на rutor.org? Какой новый адрес рутор? Какое зеркало рутор? Не работает rutor.org и зеркала? Тогда наш торрент специально для вас. Rutor.in неофициальное зеркало rutor. В случае если у Вас заблокирован rutor или вдруг Вы не можете на него зайти, то Вы без труда сможете скачать бесплатно и без рекламы последние новинки кино, игр, сериалов и прочего у нас, на Rutor.in. Не нужно использовать прокси, чтобы зайти на рутор, достаточно воспользоваться нашим ресурсом. Все новые фильмы, игры, сериалы, книги и музыка за 2013 и 2014 годы через торрент бесплатно. Скачивайте фильмы в хорошем качестве, игры для пк, xbox, playstation без регистрации. У нас вы найдете новые Зарубежные сериалы и Русские сериалы 2013, 2014, 2015 годов. Оставайтесь с нами, качайте любимые фильмы, игры, сериалы, книги и музыку.