img image001 image001 image001 image001 image001 image001 image001 image001 image001 image001 image001 image001 image001 image001 image001

Planets Sun Sun Sun
Статистика раздачи
Автор: Снежана | Размер: 6.09 ГБ | Добавлен: 25 июл 2013
Раздают: 0    Качают: 1
Скачать торрент
Скачать торрент
Описание торрента

СообщениеДобавлено: 25 июл 2013 

#77

Информация о фильме
Название: Фил из будущего
Оригинальное название: Phil of theFuture
Год выхода: 2005
Жанр: Комедия, фантастика
Режиссер: Фред Сэвидж, Нил Израэл, Шон МакНамара
В ролях: Рики Уллман, Элисон Мичалка, Эми Брукнер, Крэйг Энтон, Лизе Симс, Жан-Поль Ману

О фильме:
На первый взгляд, Фил — обычный подросток. Но на самом деле он прибыл из далекого будущего: вместе со своей семьей он попал к нам из 2121 года! Когда они путешествовали сквозь время, корабль сломался, и им пришлось совершить экстренную посадку в нашем времени.

Приключения Фила и его семьи поистине невероятны, ведь в руках у них разнообразные фантастические приборы из будущего. Они позволяют, к примеру, делаться невидимыми, дают возможность уменьшаться в размерах или даже изменять свой внешний вид… В 21 веке у Фила начинается классная жизнь, интересная и увлекательная, но здесь — не его родное время. Захочет ли он вернуться назад в будущее?..

Страна: США
Продолжительность: 00:22:00
Перевод: Полное дублирование (т/к Дисней)
Русские субтитры: нет
Субтитры: Нет

Файл

Первый сезон:

Качество: SATRip
Формат: AVI
Видео кодек: XviD
Аудио кодек: MP3
Видео: MPEG4, XviD, 704x528 (4/3), 25.000 fps, 1 796 Kbps (0.193 bit/pixel)
Аудио: 48 kHz, MPEG Layer 3, 2 ch, ~128.00 kbps avg


Общее
General
Complete name : I:ЗАКАЧКИФил из будущего - сезон 1Phil.of.the.Future.1x21.SATRip.[www.Riper.AM].avi
Format : AVI
Format/Info : Audio Video Interleave
File size : 299 MiB
Duration : 21mn 35s
Overall bit rate : 1 934 Kbps
Writing application : VirtualDubMod 1.5.10.3 | www.virtualdub-fr.org || (build 2550/release)
Writing library : VirtualDubMod build 2550/release
Video
ID : 0
Format : MPEG-4 Visual
Format profile : Advanced Simple@L5
Format settings, BVOP : 2
Format settings, QPel : No
Format settings, GMC : No warppoints
Format settings, Matrix : Default (H.263)
Codec ID : XVID
Codec ID/Hint : XviD
Duration : 21mn 35s
Bit rate : 1 796 Kbps
Width : 704 pixels
Height : 528 pixels
Display aspect ratio : 4:3
Frame rate : 25.000 fps
Color space : YUV
Chroma subsampling : 4:2:0
Bit depth : 8 bits
Scan type : Progressive
Compression mode : Lossy
Bits/(Pixel*Frame) : 0.193
Stream size : 277 MiB (93%)
Writing library : XviD 1.2.1 (UTC 2008-12-04)
Audio
ID : 1
Format : MPEG Audio
Format version : Version 1
Format profile : Layer 3
Mode : Joint stereo
Mode extension : MS Stereo
Codec ID : 55
Codec ID/Hint : MP3
Duration : 21mn 35s
Bit rate mode : Constant
Bit rate : 128 Kbps
Channel(s) : 2 channels
Sampling rate : 48.0 KHz
Compression mode : Lossy
Stream size : 19.8 MiB (7%)
Alignment : Aligned on interleaves
Interleave, duration : 40 ms (1.00 video frame)
Interleave, preload duration : 504 ms







   Похожие торренты   Торрент   Размер 
В этой теме нет новых непрочитанных сообщений. Фил из будущего / Phil of the Future [02x01-12, 14-21] (2005) SATRip-AVC | D

0 | 1

5.49 ГБ

В этой теме нет новых непрочитанных сообщений. BBC: Дикий мир будущего / Прогулки с монстрами будущего / BBC: The Future is Wild (2003) DVDRip by GENADIY

14 | 12

4.37 ГБ

В этой теме нет новых непрочитанных сообщений. Идеи из будущего / Ideas of the Future [01-20] (2012) SATRip | D

5 | 2

7.01 ГБ

В этой теме нет новых непрочитанных сообщений. BBC: Картины будущего / BBC: Visions of the Future (2007) SATRip от tenow

139 | 6

2.18 ГБ

В этой теме нет новых непрочитанных сообщений. Discovery: Новый Мир : Дом будущего / Next World : Future homes (2009) SATRip

22 | 18

531.44 МБ

В этой теме нет новых непрочитанных сообщений. Discovery: Новый Мир : Развлечения будущего / Next World : Future fan (2009) SATRip

0 | 3

511.28 МБ

В этой теме нет новых непрочитанных сообщений. Водород - горючее будущего / Hydrogen - future fuel (2011) SATRip от tenow

1 | 3

667.31 МБ




Вы не можете начинать темы
Вы не можете отвечать на сообщения
Вы не можете редактировать свои сообщения
Вы не можете удалять свои сообщения
Вы не можете добавлять вложения

Перейти:  
Для Мосгорсуда, Роскомнадзора и рекламодателей: mosgorsud-torrent[собачка]yandex.ru
 Вход
ppkBB3cker v.2 © 2008-2014 @ PPK
[ Time : 0.097s | 14 Queries | GZIP : Off ]

Торрент трекер RUTOR.IN, Не можете зайти на rutor.org? Какой новый адрес рутор? Какое зеркало рутор? Не работает rutor.org и зеркала? Тогда наш торрент специально для вас. Rutor.in неофициальное зеркало rutor. В случае если у Вас заблокирован rutor или вдруг Вы не можете на него зайти, то Вы без труда сможете скачать бесплатно и без рекламы последние новинки кино, игр, сериалов и прочего у нас, на Rutor.in. Не нужно использовать прокси, чтобы зайти на рутор, достаточно воспользоваться нашим ресурсом. Все новые фильмы, игры, сериалы, книги и музыка за 2013 и 2014 годы через торрент бесплатно. Скачивайте фильмы в хорошем качестве, игры для пк, xbox, playstation без регистрации. У нас вы найдете новые Зарубежные сериалы и Русские сериалы 2013, 2014, 2015 годов. Оставайтесь с нами, качайте любимые фильмы, игры, сериалы, книги и музыку.