img image001 image001 image001 image001 image001 image001 image001 image001 image001 image001 image001 image001 image001 image001 image001

Planets Sun Sun Sun
Статистика раздачи
Автор: Снежана | Размер: 5.49 ГБ | Добавлен: 25 июл 2013
Раздают: 0    Качают: 1
Скачать торрент
Скачать торрент
Описание торрента

СообщениеДобавлено: 25 июл 2013 

#77

Информация о фильме
Название: Фил из будущего
Оригинальное название: Phil of theFuture
Год выхода: 2005
Жанр: Комедия, фантастика
Режиссер: Фред Сэвидж, Нил Израэл, Шон МакНамара
В ролях: Рики Уллман, Элисон Мичалка, Эми Брукнер, Крэйг Энтон, Лизе Симс, Жан-Поль Ману

О фильме:
На первый взгляд, Фил — обычный подросток. Но на самом деле он прибыл из далекого будущего: вместе со своей семьей он попал к нам из 2121 года! Когда они путешествовали сквозь время, корабль сломался, и им пришлось совершить экстренную посадку в нашем времени.

Приключения Фила и его семьи поистине невероятны, ведь в руках у них разнообразные фантастические приборы из будущего. Они позволяют, к примеру, делаться невидимыми, дают возможность уменьшаться в размерах или даже изменять свой внешний вид… В 21 веке у Фила начинается классная жизнь, интересная и увлекательная, но здесь — не его родное время. Захочет ли он вернуться назад в будущее?..

Страна: США
Продолжительность: 00:22:00
Перевод: Полное дублирование (т/к Дисней)
Русские субтитры: нет
Субтитры: Нет

Файл

Второй сезон:

Качество: SATRip-AVC
Формат: MKV
Видео кодек: H.264
Аудио кодек: MP2
Видео: 720x534, X264, 25fps, ~1600 kbps, Bits/(Pixel*Frame) : 0.166
Аудио: MPEG Audio 48000Hz stereo 128 kbps

Семпл

General
Unique ID : 180637276599431691098356556089528048947 (0x87E579588EE4992186BBAE01B7FA5D33)
Complete name : D:Фил из будущего (2сезон)Phil.of.the.Future.2x07.mkv
Format : Matroska
Format version : Version 2
File size : 268 MiB
Duration : 21mn 40s
Overall bit rate : 1 729 Kbps
Encoded date : UTC 2012-03-17 05:19:59
Writing application : mkvmerge v5.4.0 ('Piper') built on Mar 10 2012 13:34:39
Writing library : libebml v1.2.3 + libmatroska v1.3.0

Video
ID : 1
Format : AVC
Format/Info : Advanced Video Codec
Format profile : High@L5.0
Format settings, CABAC : Yes
Format settings, ReFrames : 8 frames
Muxing mode : Header stripping
Codec ID : V_MPEG4/ISO/AVC
Duration : 21mn 40s
Bit rate : 1 600 Kbps
Width : 720 pixels
Height : 534 pixels
Display aspect ratio : 4:3
Frame rate : 25.000 fps
Color space : YUV
Chroma subsampling : 4:2:0
Bit depth : 8 bits
Scan type : Progressive
Bits/(Pixel*Frame) : 0.166
Stream size : 243 MiB (91%)
Writing library : x264 core 120 r2120bm 0c7dab9
Encoding settings : cabac=1 / ref=8 / deblock=1:-1:-1 / analyse=0x3:0x133 / me=umh / subme=9 / psy=1 / psy_rd=1.00:0.15 / mixed_ref=1 / me_range=16 / chroma_me=1 / trellis=2 / 8x8dct=1 / cqm=0 / deadzone=21,11 / fast_pskip=1 / chroma_qp_offset=-3 / threads=6 / sliced_threads=0 / nr=0 / decimate=1 / interlaced=0 / bluray_compat=0 / constrained_intra=0 / bframes=3 / b_pyramid=2 / b_adapt=2 / b_bias=0 / direct=3 / weightb=1 / open_gop=0 / weightp=2 / keyint=250 / keyint_min=25 / scenecut=40 / intra_refresh=0 / rc_lookahead=60 / rc=2pass / mbtree=1 / bitrate=1600 / ratetol=1.0 / qcomp=0.60 / qpmin=0 / qpmax=69 / qpstep=4 / cplxblur=20.0 / qblur=0.5 / ip_ratio=1.40 / aq=1:1.00
Language : Russian
Default : Yes
Forced : No

Audio
ID : 2
Format : MPEG Audio
Format version : Version 1
Format profile : Layer 2
Muxing mode : Header stripping
Codec ID : A_MPEG/L2
Codec ID/Hint : MP2
Duration : 21mn 40s
Bit rate mode : Constant
Bit rate : 128 Kbps
Channel(s) : 2 channels
Sampling rate : 48.0 KHz
Compression mode : Lossy
Delay relative to video : 21ms
Stream size : 19.8 MiB (7%)
Language : Russian
Default : Yes
Forced : No



   Похожие торренты   Торрент   Размер 
В этой теме нет новых непрочитанных сообщений. Фил из будущего / Phil of the Future [S01] (2005) SATRip | D

0 | 1

6.09 ГБ

В этой теме нет новых непрочитанных сообщений. BBC: Дикий мир будущего / Прогулки с монстрами будущего / BBC: The Future is Wild (2003) DVDRip by GENADIY

14 | 12

4.37 ГБ

В этой теме нет новых непрочитанных сообщений. Идеи из будущего / Ideas of the Future [01-20] (2012) SATRip | D

5 | 2

7.01 ГБ

В этой теме нет новых непрочитанных сообщений. BBC: Картины будущего / BBC: Visions of the Future (2007) SATRip от tenow

139 | 6

2.18 ГБ

В этой теме нет новых непрочитанных сообщений. Discovery: Новый Мир : Развлечения будущего / Next World : Future fan (2009) SATRip

0 | 3

511.28 МБ

В этой теме нет новых непрочитанных сообщений. Discovery: Новый Мир : Дом будущего / Next World : Future homes (2009) SATRip

22 | 18

531.44 МБ

В этой теме нет новых непрочитанных сообщений. Водород - горючее будущего / Hydrogen - future fuel (2011) SATRip от tenow

1 | 3

667.31 МБ




Вы не можете начинать темы
Вы не можете отвечать на сообщения
Вы не можете редактировать свои сообщения
Вы не можете удалять свои сообщения
Вы не можете добавлять вложения

Перейти:  
Для Мосгорсуда, Роскомнадзора и рекламодателей: mosgorsud-torrent[собачка]yandex.ru
 Вход
ppkBB3cker v.2 © 2008-2014 @ PPK
[ Time : 0.054s | 15 Queries | GZIP : Off ]

Торрент трекер RUTOR.IN, Не можете зайти на rutor.org? Какой новый адрес рутор? Какое зеркало рутор? Не работает rutor.org и зеркала? Тогда наш торрент специально для вас. Rutor.in неофициальное зеркало rutor. В случае если у Вас заблокирован rutor или вдруг Вы не можете на него зайти, то Вы без труда сможете скачать бесплатно и без рекламы последние новинки кино, игр, сериалов и прочего у нас, на Rutor.in. Не нужно использовать прокси, чтобы зайти на рутор, достаточно воспользоваться нашим ресурсом. Все новые фильмы, игры, сериалы, книги и музыка за 2013 и 2014 годы через торрент бесплатно. Скачивайте фильмы в хорошем качестве, игры для пк, xbox, playstation без регистрации. У нас вы найдете новые Зарубежные сериалы и Русские сериалы 2013, 2014, 2015 годов. Оставайтесь с нами, качайте любимые фильмы, игры, сериалы, книги и музыку.
cron