img image001 image001 image001 image001 image001 image001 image001 image001 image001 image001 image001 image001 image001 image001 image001

Planets Sun Sun Sun
Статистика раздачи
Автор: Снежана | Размер: 8.33 ГБ | Добавлен: 25 июл 2013
Раздают: 47    Качают: 56
Скачать торрент
Скачать торрент
Описание торрента

СообщениеДобавлено: 25 июл 2013 


Информация о фильме
Название: Фаворский
Страна: Россия
Жанр: Приключения
Продолжительность: ~ 420 минут
Русские субтитры: нет


Режиссер: Дмитрий Светозаров


В ролях: Илья Шакунов, Александр Лыков, Валерий Дегтярь, Андрей Зибров, Нодар Мгалоблишвили, Тара Амирханова


Описание: Александр Богданов — старший помощник на торговом судне Балтийского пароходства, возвращается из зарубежного плавания. В Стокгольме он случайно встречается с пожилой шведкой, которая просит его передать книгу о Карлсоне на английском языке своему старинному другу в Москве…
Доп. информация:
Анимированное меню; Бонусов нет.
Киностудия: студия «АСДС». Дистрибьютор: Фабрика кино
Ссылка по фильму:
Качество: DVD5 Сэмпл
Формат: DVD Video
Видео кодек: MPEG2
Аудио кодек: AC3
Видео: PAL 4:3 (768x576) VBR
Аудио: Русский DD 2.0 (192Kbps)


Title: Disc 1
Size: 4.09 Gb ( 4 286 264,00 KBytes ) - DVD-5
Enabled regions: 1, 2, 3, 4, 5, 6, 7, 8
VTS_01 :
Play Length: 00:02:34+00:01:10+00:00:30
Video: PAL 4:3 (720x576) VBR
Audio:
Russian (Dolby AC3, 6 ch)
VTS_02 :
Play Length: 03:40:10
Video: PAL 4:3 (720x576) VBR
Audio:
Russian, AC3, 2/0 (L,R) ch, 192 kbps, Delay 0 mSec


Title: Disc 2
Size: 4.23 Gb ( 4 436 024,00 KBytes ) - DVD-5
Enabled regions: 1, 2, 3, 4, 5, 6, 7, 8
VTS_01 :
Play Length: 00:02:34+00:01:10+00:00:30
Video: PAL 4:3 (720x576) VBR
Audio:
Russian (Dolby AC3, 6 ch)
VTS_02 :
Play Length: 03:40:31
Video: PAL 4:3 (720x576) VBR
Audio:
Russian, AC3, 2/0 (L,R) ch, 192 kbps, Delay 0 mSec



Общее
Полное имя : F:Фаворский 2xDVD5 R5Disc 1VIDEO_TSVIDEO_TS.BUP
Формат : DVD Video
Профиль формата : Menu
Размер файла : 12,0 Кбайт
Режим общего битрейта : Переменный
Видео
Идентификатор : 224 (0xE0)
Формат : MPEG Video
Версия формата : Version 2
Вид битрейта : Переменный
Ширина : 720 пикселей
Высота : 576 пикселей
Соотношение сторон : 4:3
Частота кадров : 25,000 кадров/сек
Стандарт вещания : PAL
Метод сжатия : С потерями
Текст
Формат : RLE
Формат/Информация : Run-length encoding
Битовая глубина : 2 бит
Общее
Полное имя : F:Фаворский 2xDVD5 R5Disc 1VIDEO_TSVIDEO_TS.IFO
Формат : DVD Video
Профиль формата : Menu
Размер файла : 12,0 Кбайт
Режим общего битрейта : Переменный
Видео
Идентификатор : 224 (0xE0)
Формат : MPEG Video
Версия формата : Version 2
Вид битрейта : Переменный
Ширина : 720 пикселей
Высота : 576 пикселей
Соотношение сторон : 4:3
Частота кадров : 25,000 кадров/сек
Стандарт вещания : PAL
Метод сжатия : С потерями
Текст
Формат : RLE
Формат/Информация : Run-length encoding
Битовая глубина : 2 бит
Общее
Полное имя : F:Фаворский 2xDVD5 R5Disc 1VIDEO_TSVIDEO_TS.VOB
Формат : MPEG-PS
Размер файла : 10,0 Кбайт
Продолжительность : 40 мс.
Общий поток : 2048 Кбит/сек
Видео
Идентификатор : 224 (0xE0)
Формат : MPEG Video
Версия формата : Version 2
Профиль формата : Main@Main
Параметр BVOP формата : Нет
Параметр матрицы формата : Выборочная
Продолжительность : 40 мс.
Максимальный битрейт : 8000 Кбит/сек
Ширина : 720 пикселей
Высота : 576 пикселей
Соотношение сторон : 4:3
Частота кадров : 25,000 кадров/сек
Стандарт вещания : PAL
Цветовое пространство : YUV
Субдискретизация насыщенности : 4:2:0
Битовая глубина : 8 бит
Тип развёртки : Прогрессивная
Порядок развёртки : Верхнее поле первое
Метод сжатия : С потерями
Меню
Общее
Полное имя : F:Фаворский 2xDVD5 R5Disc 1VIDEO_TSVTS_01_0.BUP
Формат : DVD Video
Профиль формата : Program
Размер файла : 10,0 Кбайт
Продолжительность : 2 м. 34 с.
Режим общего битрейта : Переменный
Общий поток : 529 бит/сек
Видео
Идентификатор : 224 (0xE0)
Формат : MPEG Video
Версия формата : Version 2
Продолжительность : 2 м. 34 с.
Вид битрейта : Переменный
Ширина : 720 пикселей
Высота : 576 пикселей
Соотношение сторон : 4:3
Частота кадров : 25,000 кадров/сек
Стандарт вещания : PAL
Метод сжатия : С потерями
Аудио
Идентификатор : 128 (0x80)
Формат : AC-3
Формат/Информация : Audio Coding 3
Продолжительность : 2 м. 34 с.
Каналы : 6 каналов
Частота : 48,0 КГц
Метод сжатия : С потерями
Язык : Russian
Меню #1
Продолжительность : 2 м. 34 с.
00:00:00.000 : Chapter 1
00:01:33.960 : Chapter 2
00:01:52.760 : Chapter 3
00:02:13.360 : Chapter 4
List (Audio) : 0
Меню #2
Продолжительность : 1 м. 10 с.
00:00:00.000 : Chapter 1
List (Audio) : 0
Общее
Полное имя : F:Фаворский 2xDVD5 R5Disc 1VIDEO_TSVTS_01_0.IFO
Формат : DVD Video
Профиль формата : Program
Размер файла : 10,0 Кбайт
Продолжительность : 2 м. 34 с.
Режим общего битрейта : Переменный
Общий поток : 529 бит/сек
Видео
Идентификатор : 224 (0xE0)
Формат : MPEG Video
Версия формата : Version 2
Продолжительность : 2 м. 34 с.
Вид битрейта : Переменный
Ширина : 720 пикселей
Высота : 576 пикселей
Соотношение сторон : 4:3
Частота кадров : 25,000 кадров/сек
Стандарт вещания : PAL
Метод сжатия : С потерями
Аудио
Идентификатор : 128 (0x80)
Формат : AC-3
Формат/Информация : Audio Coding 3
Продолжительность : 2 м. 34 с.
Каналы : 6 каналов
Частота : 48,0 КГц
Метод сжатия : С потерями
Язык : Russian
Меню #1
Продолжительность : 2 м. 34 с.
00:00:00.000 : Chapter 1
00:01:33.960 : Chapter 2
00:01:52.760 : Chapter 3
00:02:13.360 : Chapter 4
List (Audio) : 0
Меню #2
Продолжительность : 1 м. 10 с.
00:00:00.000 : Chapter 1
List (Audio) : 0
Общее
Полное имя : F:Фаворский 2xDVD5 R5Disc 1VIDEO_TSVTS_01_1.VOB
Формат : MPEG-PS
Размер файла : 199 Мбайт
Продолжительность : 15 с.
Режим общего битрейта : Переменный
Общий поток : 112 Мбит/сек
Видео
Идентификатор : 224 (0xE0)
Формат : MPEG Video
Версия формата : Version 2
Профиль формата : Main@Main
Параметр BVOP формата : Да
Параметр матрицы формата : Выборочная
Продолжительность : 15 с.
Вид битрейта : Переменный
Битрейт : 109 Мбит/сек
Максимальный битрейт : 8000 Кбит/сек
Ширина : 720 пикселей
Высота : 576 пикселей
Соотношение сторон : 4:3
Частота кадров : 25,000 кадров/сек
Стандарт вещания : PAL
Цветовое пространство : YUV
Субдискретизация насыщенности : 4:2:0
Битовая глубина : 8 бит
Тип развёртки : Чересстрочная
Порядок развёртки : Верхнее поле первое
Метод сжатия : С потерями
Бит/(Пиксели*Кадры) : 10.521
Размер потока : 195 Мбайт (98%)
Аудио
Идентификатор : 189 (0xBD)-128 (0x80)
Формат : AC-3
Формат/Информация : Audio Coding 3
Расширение режима : CM (complete main)
Режим смешивания : DVD-Video
Продолжительность : 14 с.
Вид битрейта : Постоянный
Битрейт : 224 Кбит/сек
Каналы : 6 каналов
Расположение каналов : Front: L C R, Side: L R, LFE
Частота : 48,0 КГц
Битовая глубина : 16 бит
Метод сжатия : С потерями
Размер потока : 391 Кбайт (0%)
Меню
Общее
Полное имя : F:Фаворский 2xDVD5 R5Disc 1VIDEO_TSVTS_02_0.BUP
Формат : DVD Video
Профиль формата : Program
Размер файла : 114 Кбайт
Продолжительность : 3 ч. 40 м.
Режим общего битрейта : Переменный
Общий поток : 70 бит/сек
Видео
Идентификатор : 224 (0xE0)
Формат : MPEG Video
Версия формата : Version 2
Продолжительность : 3 ч. 40 м.
Вид битрейта : Переменный
Ширина : 720 пикселей
Высота : 576 пикселей
Соотношение сторон : 4:3
Частота кадров : 25,000 кадров/сек
Стандарт вещания : PAL
Метод сжатия : С потерями
Аудио
Идентификатор : 128 (0x80)
Формат : AC-3
Формат/Информация : Audio Coding 3
Продолжительность : 3 ч. 40 м.
Каналы : 2 канала
Частота : 48,0 КГц
Метод сжатия : С потерями
Язык : Russian
Меню
Продолжительность : 3 ч. 40 м.
00:00:00.000 : Chapter 1
00:10:40.640 : Chapter 2
00:21:13.960 : Chapter 3
00:26:26.560 : Chapter 4
00:38:22.840 : Chapter 5
00:44:10.840 : Chapter 6
00:44:11.840 : Chapter 7
00:52:39.640 : Chapter 8
01:03:30.600 : Chapter 9
01:13:28.520 : Chapter 10
01:22:20.640 : Chapter 11
01:28:24.720 : Chapter 12
01:28:25.680 : Chapter 13
01:36:28.400 : Chapter 14
01:47:39.560 : Chapter 15
01:58:29.880 : Chapter 16
02:06:35.200 : Chapter 17
02:12:14.960 : Chapter 18
02:12:15.480 : Chapter 19
02:20:52.880 : Chapter 20
02:36:08.840 : Chapter 21
02:45:49.960 : Chapter 22
02:56:32.720 : Chapter 23
02:56:33.080 : Chapter 24
03:06:23.000 : Chapter 25
03:15:49.040 : Chapter 26
03:25:40.920 : Chapter 27
03:34:39.680 : Chapter 28
03:40:09.320 : Chapter 29
List (Audio) : 0
Общее
Полное имя : F:Фаворский 2xDVD5 R5Disc 1VIDEO_TSVTS_02_0.IFO
Формат : DVD Video
Профиль формата : Program
Размер файла : 114 Кбайт
Продолжительность : 3 ч. 40 м.
Режим общего битрейта : Переменный
Общий поток : 70 бит/сек
Видео
Идентификатор : 224 (0xE0)
Формат : MPEG Video
Версия формата : Version 2
Продолжительность : 3 ч. 40 м.
Вид битрейта : Переменный
Ширина : 720 пикселей
Высота : 576 пикселей
Соотношение сторон : 4:3
Частота кадров : 25,000 кадров/сек
Стандарт вещания : PAL
Метод сжатия : С потерями
Аудио
Идентификатор : 128 (0x80)
Формат : AC-3
Формат/Информация : Audio Coding 3
Продолжительность : 3 ч. 40 м.
Каналы : 2 канала
Частота : 48,0 КГц
Метод сжатия : С потерями
Язык : Russian
Меню
Продолжительность : 3 ч. 40 м.
00:00:00.000 : Chapter 1
00:10:40.640 : Chapter 2
00:21:13.960 : Chapter 3
00:26:26.560 : Chapter 4
00:38:22.840 : Chapter 5
00:44:10.840 : Chapter 6
00:44:11.840 : Chapter 7
00:52:39.640 : Chapter 8
01:03:30.600 : Chapter 9
01:13:28.520 : Chapter 10
01:22:20.640 : Chapter 11
01:28:24.720 : Chapter 12
01:28:25.680 : Chapter 13
01:36:28.400 : Chapter 14
01:47:39.560 : Chapter 15
01:58:29.880 : Chapter 16
02:06:35.200 : Chapter 17
02:12:14.960 : Chapter 18
02:12:15.480 : Chapter 19
02:20:52.880 : Chapter 20
02:36:08.840 : Chapter 21
02:45:49.960 : Chapter 22
02:56:32.720 : Chapter 23
02:56:33.080 : Chapter 24
03:06:23.000 : Chapter 25
03:15:49.040 : Chapter 26
03:25:40.920 : Chapter 27
03:34:39.680 : Chapter 28
03:40:09.320 : Chapter 29
List (Audio) : 0
Общее
Полное имя : F:Фаворский 2xDVD5 R5Disc 1VIDEO_TSVTS_02_0.VOB
Формат : MPEG-PS
Размер файла : 45,6 Мбайт
Продолжительность : 39 с.
Общий поток : 9707 Кбит/сек
Библиотека кодирования : encoded by TMPGEnc 4.0 XPress Version. 4.4.1.237
Видео
Идентификатор : 224 (0xE0)
Формат : MPEG Video
Версия формата : Version 2
Профиль формата : Main@Main
Параметр BVOP формата : Да
Параметр матрицы формата : Выборочная
Продолжительность : 39 с.
Битрейт : 9200 Кбит/сек
Ширина : 720 пикселей
Высота : 576 пикселей
Соотношение сторон : 4:3
Частота кадров : 25,000 кадров/сек
Стандарт вещания : PAL
Цветовое пространство : YUV
Субдискретизация насыщенности : 4:2:0
Битовая глубина : 8 бит
Тип развёртки : Чересстрочная
Порядок развёртки : Верхнее поле первое
Метод сжатия : С потерями
Бит/(Пиксели*Кадры) : 0.887
Размер потока : 43,8 Мбайт (96%)
Библиотека кодирования : TMPGEnc XPress 4.4.1.237
Основные цвета : BT.470-2 System B, BT.470-2 System G
Характеристики трансфера : BT.470-2 System B, BT.470-2 System G
Коэффициенты матрицы : BT.470-2 System B, BT.470-2 System G
Аудио
Идентификатор : 189 (0xBD)-128 (0x80)
Формат : AC-3
Формат/Информация : Audio Coding 3
Расширение режима : CM (complete main)
Режим смешивания : DVD-Video
Продолжительность : 22 с.
Вид битрейта : Постоянный
Битрейт : 192 Кбит/сек
Каналы : 2 канала
Расположение каналов : Front: L R
Частота : 48,0 КГц
Битовая глубина : 16 бит
Метод сжатия : С потерями
Размер потока : 528 Кбайт (1%)
Текст
Идентификатор : 189 (0xBD)-32 (0x20)
Формат : RLE
Формат/Информация : Run-length encoding
Режим смешивания : DVD-Video
Продолжительность : 49 мс.
Меню
Общее
Полное имя : F:Фаворский 2xDVD5 R5Disc 1VIDEO_TSVTS_02_1.VOB
Формат : MPEG-PS
Размер файла : 1024 Мбайт
Продолжительность : 7 м. 42 с.
Режим общего битрейта : Переменный
Общий поток : 18,6 Мбит/сек
Видео
Идентификатор : 224 (0xE0)
Формат : MPEG Video
Версия формата : Version 2
Профиль формата : Main@Main
Параметр BVOP формата : Да
Параметр матрицы формата : Выборочная
Продолжительность : 7 м. 42 с.
Вид битрейта : Переменный
Битрейт : 18,0 Мбит/сек
Максимальный битрейт : 8000 Кбит/сек
Ширина : 720 пикселей
Высота : 576 пикселей
Соотношение сторон : 4:3
Частота кадров : 25,000 кадров/сек
Стандарт вещания : PAL
Цветовое пространство : YUV
Субдискретизация насыщенности : 4:2:0
Битовая глубина : 8 бит
Тип развёртки : Чересстрочная
Порядок развёртки : Верхнее поле первое
Метод сжатия : С потерями
Бит/(Пиксели*Кадры) : 1.736
Размер потока : 993 Мбайт (97%)
Аудио
Идентификатор : 189 (0xBD)-128 (0x80)
Формат : AC-3
Формат/Информация : Audio Coding 3
Расширение режима : CM (complete main)
Режим смешивания : DVD-Video
Продолжительность : 7 м. 42 с.
Вид битрейта : Постоянный
Битрейт : 192 Кбит/сек
Каналы : 2 канала
Расположение каналов : Front: L R
Частота : 48,0 КГц
Битовая глубина : 16 бит
Метод сжатия : С потерями
Размер потока : 10,6 Мбайт (1%)
Меню
Общее
Полное имя : F:Фаворский 2xDVD5 R5Disc 1VIDEO_TSVTS_02_2.VOB
Формат : MPEG-PS
Размер файла : 1024 Мбайт
Продолжительность : 7 м. 38 с.
Режим общего битрейта : Переменный
Общий поток : 18,8 Мбит/сек
Видео
Идентификатор : 224 (0xE0)
Формат : MPEG Video
Версия формата : Version 2
Профиль формата : Main@Main
Параметр BVOP формата : Да
Параметр матрицы формата : Выборочная
Параметр GOP формата : M=3, N=15
Продолжительность : 7 м. 38 с.
Вид битрейта : Переменный
Битрейт : 18,2 Мбит/сек
Максимальный битрейт : 8000 Кбит/сек
Ширина : 720 пикселей
Высота : 576 пикселей
Соотношение сторон : 4:3
Частота кадров : 25,000 кадров/сек
Стандарт вещания : PAL
Цветовое пространство : YUV
Субдискретизация насыщенности : 4:2:0
Битовая глубина : 8 бит
Тип развёртки : Чересстрочная
Порядок развёртки : Верхнее поле первое
Метод сжатия : С потерями
Бит/(Пиксели*Кадры) : 1.754
Размер потока : 993 Мбайт (97%)
Аудио
Идентификатор : 189 (0xBD)-128 (0x80)
Формат : AC-3
Формат/Информация : Audio Coding 3
Расширение режима : CM (complete main)
Режим смешивания : DVD-Video
Продолжительность : 7 м. 38 с.
Вид битрейта : Постоянный
Битрейт : 192 Кбит/сек
Каналы : 2 канала
Расположение каналов : Front: L R
Частота : 48,0 КГц
Битовая глубина : 16 бит
Метод сжатия : С потерями
Задержка видео : -192 мс.
Размер потока : 10,5 Мбайт (1%)
Меню
Общее
Полное имя : F:Фаворский 2xDVD5 R5Disc 1VIDEO_TSVTS_02_3.VOB
Формат : MPEG-PS
Размер файла : 1024 Мбайт
Продолжительность : 17 м.
Режим общего битрейта : Переменный
Общий поток : 8159 Кбит/сек
Видео
Идентификатор : 224 (0xE0)
Формат : MPEG Video
Версия формата : Version 2
Профиль формата : Main@Main
Параметр BVOP формата : Да
Параметр матрицы формата : Выборочная
Параметр GOP формата : M=3, N=15
Продолжительность : 17 м.
Вид битрейта : Переменный
Битрейт : 7805 Кбит/сек
Максимальный битрейт : 8000 Кбит/сек
Ширина : 720 пикселей
Высота : 576 пикселей
Соотношение сторон : 4:3
Частота кадров : 25,000 кадров/сек
Стандарт вещания : PAL
Цветовое пространство : YUV
Субдискретизация насыщенности : 4:2:0
Битовая глубина : 8 бит
Тип развёртки : Чересстрочная
Порядок развёртки : Верхнее поле первое
Метод сжатия : С потерями
Бит/(Пиксели*Кадры) : 0.753
Размер потока : 979 Мбайт (96%)
Аудио
Идентификатор : 189 (0xBD)-128 (0x80)
Формат : AC-3
Формат/Информация : Audio Coding 3
Расширение режима : CM (complete main)
Режим смешивания : DVD-Video
Продолжительность : 17 м.
Вид битрейта : Постоянный
Битрейт : 192 Кбит/сек
Каналы : 2 канала
Расположение каналов : Front: L R
Частота : 48,0 КГц
Битовая глубина : 16 бит
Метод сжатия : С потерями
Задержка видео : -200 мс.
Размер потока : 24,1 Мбайт (2%)
Меню
Общее
Полное имя : F:Фаворский 2xDVD5 R5Disc 1VIDEO_TSVTS_02_4.VOB
Формат : MPEG-PS
Размер файла : 869 Мбайт
Продолжительность : 10 м.
Режим общего битрейта : Переменный
Общий поток : 11,3 Мбит/сек
Видео
Идентификатор : 224 (0xE0)
Формат : MPEG Video
Версия формата : Version 2
Профиль формата : Main@Main
Параметр BVOP формата : Да
Параметр матрицы формата : Выборочная
Параметр GOP формата : M=3, N=13
Продолжительность : 10 м.
Вид битрейта : Переменный
Битрейт : 10,9 Мбит/сек
Максимальный битрейт : 1700 Кбит/сек
Ширина : 720 пикселей
Высота : 576 пикселей
Соотношение сторон : 4:3
Частота кадров : 25,000 кадров/сек
Стандарт вещания : PAL
Цветовое пространство : YUV
Субдискретизация насыщенности : 4:2:0
Битовая глубина : 8 бит
Тип развёртки : Прогрессивная
Метод сжатия : С потерями
Бит/(Пиксели*Кадры) : 1.052
Размер потока : 837 Мбайт (96%)
Основные цвета : BT.470-2 System B, BT.470-2 System G
Характеристики трансфера : BT.470-2 System B, BT.470-2 System G
Коэффициенты матрицы : BT.470-2 System B, BT.470-2 System G
Аудио
Идентификатор : 189 (0xBD)-128 (0x80)
Формат : AC-3
Формат/Информация : Audio Coding 3
Расширение режима : CM (complete main)
Режим смешивания : DVD-Video
Продолжительность : 10 м.
Вид битрейта : Постоянный
Битрейт : 192 Кбит/сек
Каналы : 2 канала
Расположение каналов : Front: L R
Частота : 48,0 КГц
Битовая глубина : 16 бит
Метод сжатия : С потерями
Задержка видео : -112 мс.
Размер потока : 14,7 Мбайт (2%)
Меню







Автор рипа: Ibraghim
Раздача от:



   Похожие торренты   Торрент   Размер 
В этой теме нет новых непрочитанных сообщений. Фаворский [9 серий] (2005) TVRip

58 | 42

4.49 ГБ

В этой теме нет новых непрочитанных сообщений. Капкан времени / Slipstream (2005) DVD5 от Youtracker

3 | 2

3.39 ГБ

В этой теме нет новых непрочитанных сообщений. Enigma: Remember the Future (Re-Issue) (2005) DVD5 от Youtracker

30 | 4

3.89 ГБ

В этой теме нет новых непрочитанных сообщений. Принцесса льда / Ice Princess (2005) DVD5 от Youtracker | P | Сжатый

3 | 2

4.34 ГБ

В этой теме нет новых непрочитанных сообщений. Деньги на двоих / Two for the Money (2005) DVD5 от Youtracker | D | Сжатый

4 | 3

4.37 ГБ

В этой теме нет новых непрочитанных сообщений. Добро пожаловать в рай! / Into the Blue (2005) DVD5 от Youtracker | D | Сжатый

0 | 2

4.31 ГБ

В этой теме нет новых непрочитанных сообщений. И грянул гром / A Sound of Thunder (2005) DVD5 от Youtracker

8 | 4

4.2 ГБ




Вы не можете начинать темы
Вы не можете отвечать на сообщения
Вы не можете редактировать свои сообщения
Вы не можете удалять свои сообщения
Вы не можете добавлять вложения

Перейти:  
Для Мосгорсуда, Роскомнадзора и рекламодателей: mosgorsud-torrent[собачка]yandex.ru
 Вход
ppkBB3cker v.2 © 2008-2014 @ PPK
[ Time : 0.043s | 16 Queries | GZIP : Off ]

Торрент трекер RUTOR.IN, Не можете зайти на rutor.org? Какой новый адрес рутор? Какое зеркало рутор? Не работает rutor.org и зеркала? Тогда наш торрент специально для вас. Rutor.in неофициальное зеркало rutor. В случае если у Вас заблокирован rutor или вдруг Вы не можете на него зайти, то Вы без труда сможете скачать бесплатно и без рекламы последние новинки кино, игр, сериалов и прочего у нас, на Rutor.in. Не нужно использовать прокси, чтобы зайти на рутор, достаточно воспользоваться нашим ресурсом. Все новые фильмы, игры, сериалы, книги и музыка за 2013 и 2014 годы через торрент бесплатно. Скачивайте фильмы в хорошем качестве, игры для пк, xbox, playstation без регистрации. У нас вы найдете новые Зарубежные сериалы и Русские сериалы 2013, 2014, 2015 годов. Оставайтесь с нами, качайте любимые фильмы, игры, сериалы, книги и музыку.
cron