img image001 image001 image001 image001 image001 image001 image001 image001 image001 image001 image001 image001 image001 image001 image001

Planets Sun Sun Sun
Статистика раздачи
Автор: Снежана | Размер: 8.74 ГБ | Добавлен: 25 июл 2013
Раздают: 11    Качают: 4
Скачать торрент
Скачать торрент
Описание торрента

СообщениеДобавлено: 25 июл 2013 

Торрент перезалит 16 сентября 2012 года, устранен рассинхрон в 3-5 и 8-10 сериях

#77

Страна: Россия
Год выпуска: 2012
Производство: Стар-медиа
Жанр: драма, биография
Продолжительность: 10 х 00:51:00

Режиссёр: Вальдемар Кшистек, Александр Тименко

В ролях: Иоанна Моро, Мария Порошина, Марат Башаров, Екатерина Васильева, Константин Милованов, Анна Кирина, Томмазо Раменги, Шимон Сендровский, Юлия Рутберг, Виталий Гусев...

Описание: История о певице, которая на пике своей славы попала в автокатастрофу и оказалась прикованной к больничной койке. 12 дней восходящая звезда Анна Герман не приходила в сознание. В те дни ей пришлось снова пережить трагические события своего детства — арест отца, обвиненного в шпионаже, скитания их осиротелой семьи по Средней Азии, смерть маленького брата, войну и побег в Польшу в надежде скрыться от преследователей из НКВД… Первую любовь и первый успех…
Никто из врачей не верил, что она выживет. А если даже это случится, ей пророчили полную неподвижность до конца жизни. Однако, после 12 дней комы небо даровало ей шанс начать жизнь заново. И она совершила невозможное, став «белым ангелом» советской эстрады…






Исходник: 2 x DVD9 R5
Качество: DVDRip
Формат: AVI
Дополнительно: Раздача рассчитана для записи на два диска DVD5 по пять серий, исходник плохо жмется, высокая динамика, поэтому вот такой размер.

Видео: 704x400 (16:9), 25 fps, XviD ~ 2261 kbps avg, 0.322 bit/pixel
Аудио: 48 kHz, AC3, 2 ch, 192.00 kbps

Раздача от:

Общее
Полное имя : Anna.German.2012.O.DVDRip_[Youtracker]_by_avproh�1.avi
Формат : AVI
Формат/Информация : Audio Video Interleave
Размер файла : 899 Мбайт
Продолжительность : 50 м.
Общий поток : 2467 Кбит/сек
Программа кодирования : VirtualDubMod 1.5.10.3 | www.virtualdub-fr.org || (build 2550/release)
Библиотека кодирования : VirtualDubMod build 2550/release

Видео
Идентификатор : 0
Формат : MPEG-4 Visual
Профиль формата : Advanced Simple@L5
Параметр BVOP формата : 1
Параметр QPel формата : Нет
Параметр GMC формата : Без точки перехода
Параметр матрицы формата : Выборочная
Идентификатор кодека : XVID
Идентификатор кодека/Подсказка : XviD
Продолжительность : 50 м.
Битрейт : 2265 Кбит/сек
Ширина : 704 пикселя
Высота : 400 пикселей
Соотношение сторон : 16:9
Частота кадров : 25,000 кадров/сек
Цветовое пространство : YUV
Субдискретизация насыщенности : 4:2:0
Битовая глубина : 8 бит
Тип развёртки : Прогрессивная
Метод сжатия : С потерями
Бит/(Пиксели*Кадры) : 0.322
Размер потока : 825 Мбайт (92%)
Библиотека кодирования : XviD 65

Аудио
Идентификатор : 1
Формат : AC-3
Формат/Информация : Audio Coding 3
Расширение режима : CM (complete main)
Параметр Endianness формата : Big
Идентификатор кодека : 2000
Продолжительность : 50 м.
Вид битрейта : Постоянный
Битрейт : 192 Кбит/сек
Каналы : 2 канала
Расположение каналов : Front: L R
Частота : 48,0 КГц
Битовая глубина : 16 бит
Метод сжатия : С потерями
Размер потока : 69,9 Мбайт (8%)
Выравнивание : Разделение по промежуткам
Продолжительность промежутка : 40 мс. (1,00 видеокадр)
Время предзагрузки промежутка : 500 мс.




http://alt.rutor.org/torrent/220812/anna-german-tajna-belogo-angela-01-10-iz-10-2012-dvdrip

http://screenshotcomparison.com/comparison/145274 у конкурента недокроп по бокам по 2 пикселя, а качество картинки видите сами. Исходник очень плохо жмется, поэтому у меня такой высокий битрейт.

http://screenshotcomparison.com/comparison/145530 - это сравнение спектров звуков - не совсем понятно, зачем звук в раздаче конкурента подвергнут какому-то преобразованию???



   Похожие торренты   Торрент   Размер 
В этой теме нет новых непрочитанных сообщений. Анна Герман. Тайна белого ангела [01-10 из 10] (2012) DVD9 от Youtracker | лицензия

3 | 4

15.04 ГБ

В этой теме нет новых непрочитанных сообщений. Анна Герман. Тайна белого ангела [01-10 из 10] (2012) DVDRip-AVC by tahiy

45 | 4

7.64 ГБ

В этой теме нет новых непрочитанных сообщений. Анна Герман. Тайна белого ангела [01-10 из 10] (2012) DVB

19 | 7

15.63 ГБ

В этой теме нет новых непрочитанных сообщений. Анна Герман. Тайна белого ангела [01-10 из 10] (2012) HDRip от GeneralFilm

185 | 23

4.36 ГБ

В этой теме нет новых непрочитанных сообщений. Анна Герман. Тайна белого ангела [Серии: 1-10 из 10] (2012) BDRip 720p

31 | 33

17.9 ГБ

В этой теме нет новых непрочитанных сообщений. Анна Герман - Любимые песни (2004) DVDRip

12 | 9

1.36 ГБ

В этой теме нет новых непрочитанных сообщений. Анна Герман. Светит незнакомая звезда (2004) DVDRip

7 | 3

416.78 МБ




Вы не можете начинать темы
Вы не можете отвечать на сообщения
Вы не можете редактировать свои сообщения
Вы не можете удалять свои сообщения
Вы не можете добавлять вложения

Перейти:  
Для Мосгорсуда, Роскомнадзора и рекламодателей: mosgorsud-torrent[собачка]yandex.ru
 Вход
ppkBB3cker v.2 © 2008-2014 @ PPK
[ Time : 0.072s | 17 Queries | GZIP : Off ]

Торрент трекер RUTOR.IN, Не можете зайти на rutor.org? Какой новый адрес рутор? Какое зеркало рутор? Не работает rutor.org и зеркала? Тогда наш торрент специально для вас. Rutor.in неофициальное зеркало rutor. В случае если у Вас заблокирован rutor или вдруг Вы не можете на него зайти, то Вы без труда сможете скачать бесплатно и без рекламы последние новинки кино, игр, сериалов и прочего у нас, на Rutor.in. Не нужно использовать прокси, чтобы зайти на рутор, достаточно воспользоваться нашим ресурсом. Все новые фильмы, игры, сериалы, книги и музыка за 2013 и 2014 годы через торрент бесплатно. Скачивайте фильмы в хорошем качестве, игры для пк, xbox, playstation без регистрации. У нас вы найдете новые Зарубежные сериалы и Русские сериалы 2013, 2014, 2015 годов. Оставайтесь с нами, качайте любимые фильмы, игры, сериалы, книги и музыку.