img image001 image001 image001 image001 image001 image001 image001 image001 image001 image001 image001 image001 image001 image001 image001

Planets Sun Sun Sun
Статистика раздачи
Автор: Снежана | Размер: 13.13 ГБ | Добавлен: 25 июл 2013
Раздают: 66    Качают: 15
Скачать торрент
Скачать торрент
Описание торрента

СообщениеДобавлено: 25 июл 2013 

#77
Страна: Россия
Год выпуска: 2011
Производство: ВГТРК

Жанр: драма, история
Продолжительность: 960 минут

Режиссёр: Николай Досталь

В ролях: Александр Коротков, Юлия Мельникова, Дмитрий Тихонов, Юлия Назаренко, Валерий Гришко, Дарья Екамасова, Александр Баширов, Роман Мадянов, Ольга Аксёнова-Кавалай, Михаил Асанкин, Александр Соколовский, Александр Коршунов, Валерия Буданкова, Всеволод Иванов, Георгий Караяннидис, Артем Кобзев, Владимир Устюгов, Вадим Мадянов, Виктор Маркин, Павел Меленчук, Владимир Мельников, Алексей Морозов, Тагир Рахимов, Игорь Яцко, Игорь Григорьев, Владислав Ветров, Елена Новикова, Наталья Омельченко, Александра Черкасова, Тамара Самсонова, Александр Обласов, Никита Заболотный, Евгения Казарина, Виталий Кищенко, Владимир Яворский, Илья Козин, Иван Соловьев, Ярослав Иванов, Эдуард Марцевич, Ульяна Похлебаева, Виталий Жигалин, Владимир Шульга, Сергей Мамаев, Юрий Ашихмин, Александр Трофимов, Валерий Скорокосов, Олег Любимов, Александр Сирин, Иван Верховых, Павел Любимцев, Феликс Антипов, Владимир Тягичев, Сергей Кудимов, Вячеслав Соловиченко, Андрей Щукин, Сергей Пинегин, Вячеслав Глушков, Анатолий Тумбин, Юрий Лагута, Михаил Крылов, Марина Петренко, Георгий Назаренко, Николай Шатохин, Павел Буйнаков, Янис Политов, Сергей Потапов, Тимофей Трибунцев, Вячеслав Шихалеев, Екатерина Беляева, Георгий Вавилов, Елена Доронина, Рамис Ибрагимов, Михаил Леонцев, Владимир Любовский, Владимир Сычев, Петр Янданов (Янданэ), Роман Ярославцев, Михаил Суров, Владимир Портнов, Станислав Любшин, Андрей Кузьмин, Ольга Антропова, Илья Хвостиков...

Описание: В фильме "Раскол" запечатлен тяжелейший и малоизвестный период российской истории. История раскола русской Православной церкви в XVII веке. О судьбах исторических лиц - царя Алексея Михайловича и его сына Федора Алексеевича, братьев Морозовых, боярыни Феодосии Морозовой, о церковных реформах патриарха Никона и ярых противниках этих реформ во главе с протопопом Аввакумом.






Исходник: 4хDVD9 R5
Качество: DVDRip-AVC
Формат: MKV

Видео: 720x430 (16:9), 25 fps, H264 ~ 1608 kbps avg, 0.208 bit/pixel
Аудио: 48 kHz, AC3, 6 ch, 448.00 kbps
Дополнительно: Релиз подготовлен для записи на три DVD5, поскольку в две пятёрки он никак не мог войти (звук 448 кбпс), а 4 пятёрки никакого смысла делать нет (неоправданно высокий битрейт). В первом диске 6 серий, во втором и третьем - по 7. Поэтому битрейт у файлов несколько разный.
Общее
Полное имя : Raskol.2011Raskol.2011.DVDRip-AVCD1�1.mkv
Формат : Matroska
Версия формата : Version 2
Размер файла : 758 Мбайт
Продолжительность : 51 м.
Общий поток : 2056 Кбит/сек
Дата кодирования : UTC 2012-04-11 01:06:27
Программа кодирования : mkvmerge v5.0.1 ('Es ist Sommer') built on Nov 6 2011 16:23:40
Библиотека кодирования : libebml v1.2.2 + libmatroska v1.3.0

Видео
Идентификатор : 1
Формат : AVC
Формат/Информация : Advanced Video Codec
Профиль формата : High@L4.1
Параметр CABAC формата : Да
Параметр ReFrames формата : 11 кадров
Идентификатор кодека : V_MPEG4/ISO/AVC
Продолжительность : 51 м.
Битрейт : 1608 Кбит/сек
Ширина : 720 пикселей
Высота : 430 пикселей
Соотношение сторон : 16:9
Частота кадров : 25,000 кадров/сек
Цветовое пространство : YUV
Субдискретизация насыщенности : 4:2:0
Битовая глубина : 8 бит
Тип развёртки : Прогрессивная
Бит/(Пиксели*Кадры) : 0.208
Размер потока : 578 Мбайт (76%)
Библиотека кодирования : x264 core 119 r2106 07efeb4
Настройки программы : cabac=1 / ref=11 / deblock=1:0:0 / analyse=0x3:0x113 / me=umh / subme=10 / psy=1 / psy_rd=1.00:0.20 / mixed_ref=1 / me_range=32 / chroma_me=1 / trellis=2 / 8x8dct=1 / cqm=0 / deadzone=21,11 / fast_pskip=0 / chroma_qp_offset=-3 / threads=6 / sliced_threads=0 / nr=0 / decimate=0 / interlaced=0 / bluray_compat=0 / constrained_intra=0 / bframes=8 / b_pyramid=2 / b_adapt=2 / b_bias=0 / direct=3 / weightb=1 / open_gop=0 / weightp=2 / keyint=250 / keyint_min=25 / scenecut=40 / intra_refresh=0 / rc_lookahead=60 / rc=2pass / mbtree=1 / bitrate=1608 / ratetol=1.0 / qcomp=0.60 / qpmin=0 / qpmax=69 / qpstep=4 / cplxblur=20.0 / qblur=0.5 / ip_ratio=1.40 / aq=1:1.00
Default : Да
Forced : Нет

Аудио
Идентификатор : 2
Формат : AC-3
Формат/Информация : Audio Coding 3
Расширение режима : CM (complete main)
Идентификатор кодека : A_AC3
Продолжительность : 51 м.
Вид битрейта : Постоянный
Битрейт : 448 Кбит/сек
Каналы : 6 каналов
Расположение каналов : Front: L C R, Side: L R, LFE
Частота : 48,0 КГц
Битовая глубина : 16 бит
Метод сжатия : С потерями
Размер потока : 165 Мбайт (22%)
Default : Да
Forced : Нет




Раздача от:



   Похожие торренты   Торрент   Размер 
В этой теме нет новых непрочитанных сообщений. Раскол [01-20 из 20] (2011) DVDRip

37 | 9

16.37 ГБ

В этой теме нет новых непрочитанных сообщений. Раскол [01-20 из 20] (2011) DVDRip от Generalfilm | КПК

78 | 28

4.4 ГБ

В этой теме нет новых непрочитанных сообщений. Раскол [01-20 из 20] (2011) SATRip | КПК

14 | 6

4.38 ГБ

В этой теме нет новых непрочитанных сообщений. Раскол [01-20 из 20] (2011) WEB-DLRip от Files-х

147 | 58

12.07 ГБ

В этой теме нет новых непрочитанных сообщений. Раскол [01-20 из 20] (2011) SATRip от КинозалSAT

31 | 16

10.74 ГБ

В этой теме нет новых непрочитанных сообщений. Боярыня Морозова. Раскол (2011) SATRip от KinoZalSat

4 | 3

810.17 МБ

В этой теме нет новых непрочитанных сообщений. Раскол / Partition (2008) DVDRip

7 | 1

1.37 ГБ




Вы не можете начинать темы
Вы не можете отвечать на сообщения
Вы не можете редактировать свои сообщения
Вы не можете удалять свои сообщения
Вы не можете добавлять вложения

Перейти:  
Для Мосгорсуда, Роскомнадзора и рекламодателей: mosgorsud-torrent[собачка]yandex.ru
 Вход
ppkBB3cker v.2 © 2008-2014 @ PPK
[ Time : 0.023s | 15 Queries | GZIP : Off ]

Торрент трекер RUTOR.IN, Не можете зайти на rutor.org? Какой новый адрес рутор? Какое зеркало рутор? Не работает rutor.org и зеркала? Тогда наш торрент специально для вас. Rutor.in неофициальное зеркало rutor. В случае если у Вас заблокирован rutor или вдруг Вы не можете на него зайти, то Вы без труда сможете скачать бесплатно и без рекламы последние новинки кино, игр, сериалов и прочего у нас, на Rutor.in. Не нужно использовать прокси, чтобы зайти на рутор, достаточно воспользоваться нашим ресурсом. Все новые фильмы, игры, сериалы, книги и музыка за 2013 и 2014 годы через торрент бесплатно. Скачивайте фильмы в хорошем качестве, игры для пк, xbox, playstation без регистрации. У нас вы найдете новые Зарубежные сериалы и Русские сериалы 2013, 2014, 2015 годов. Оставайтесь с нами, качайте любимые фильмы, игры, сериалы, книги и музыку.