img image001 image001 image001 image001 image001 image001 image001 image001 image001 image001 image001 image001 image001 image001 image001

Planets Sun Sun Sun
Статистика раздачи
Автор: Снежана | Размер: 9.32 ГБ | Добавлен: 25 июл 2013
Раздают: 1    Качают: 4
Скачать торрент
Скачать торрент
Описание торрента

СообщениеДобавлено: 25 июл 2013 

#77
Год выпуска: 2012
Жанр: Комедийный телесериал
Продолжительность: ~25 минут серия
Производство: РоссияРежиссер: Максим Пежемский

В ролях: Филипп Котов, Иван Громов, Александр Солдаткин, Алексей Коновалов, Руслан Сасин, Михаил Галустян, Надежда Иванова, Наталья Костенева, Марина Лычкина, Валентин Самохин, Илья Сологуб, Руслан Ягудин, Илья Володин и др.

Описание: Саша Зайцев — простой московский студент, очкарик и неудачник. Ему нравится девушка, которая на него не обращает никакого внимания, он из тех людей, кому буфетчицы хамят, и чьи карманы облегчают карманники. Но если Сашу ударить по голове, он превращается в совершенно другого человека, хотя чисто внешне для окружающих остается тем же. И этот человек знает, что делать со своими желаниями. Хочется нахамить соседу? Зажать на вечеринке однокурсницу? Угнать джип? Без проблем…
Качество: DVB (90.0°E Yamal 201)
Формат: MPEG
Видео кодек: MPEG2
Аудио кодек: MPEG Audio
Видео: MPEG2 Video 720x576 (4:3) 25.00fps ~4801 Kbps, 0.463 bit/pixel
Аудио: MPEG Audio 48000Hz stereo 192 Kbps

СЭПМЛ
General
Complete name : E:ЗАЙЦЕВ +1_2_ОЙ_СЕЗОН_DVB_''ТНТ''_BY_GALEBCEV25_ЗАЙЦЕВ +1_DVB_ТНТ_by_galebcev.mpg
Format : MPEG-PS
File size : 760 MiB
Duration : 20mn 51s
Overall bit rate mode : Variable
Overall bit rate : 5 095 Kbps
Writing library : (c) 1998-2011 Womble Multimedia, Inc. / MPEG Video Wizard DVD 5.0.1.100 (03/2011) / Sep 2 2011
Video
ID : 224 (0xE0)
Format : MPEG Video
Format version : Version 2
Format profile : Main@Main
Format settings, BVOP : No
Format settings, Matrix : Custom
Format settings, GOP : M=1, N=38
Duration : 20mn 51s
Bit rate mode : Variable
Bit rate : 4 801 Kbps
Maximum bit rate : 15.0 Mbps
Width : 720 pixels
Height : 576 pixels
Display aspect ratio : 4:3
Frame rate : 25.000 fps
Standard : PAL
Color space : YUV
Chroma subsampling : 4:2:0
Bit depth : 8 bits
Scan type : Progressive
Scan order : Top Field First
Compression mode : Lossy
Bits/(Pixel*Frame) : 0.463
Stream size : 716 MiB (94%)
Writing library : (c) 1998-2011 Womble Multimedia, Inc. / MPEG Video Wizard DVD 5.0.1.100 (03/2011) / Sep 2 2011
Audio
ID : 192 (0xC0)
Format : MPEG Audio
Format version : Version 1
Format profile : Layer 2
Duration : 20mn 51s
Bit rate mode : Constant
Bit rate : 192 Kbps
Channel(s) : 2 channels
Sampling rate : 48.0 KHz
Compression mode : Lossy
Stream size : 28.6 MiB (4%)

Внимание! Раздача ведётся путём добавления новых серий; при каждом добавлении создётся новый торрент. Чтобы начать докачку новой серии, пользователям необходимо сделать следующее:
(1) остановить скачивание,
(2) удалить старый торрент у себя из клиента (старые серии удалять не надо),
(3) скачать новый торрент и запустить его у себя в клиенте вместо старого, при этом указать клиенту путь в старую папку куда и должно происходить скачивание новых серий.
Ваш клиент при этом должен произвести хеширование (проверку) старой папки (если не производит сам - помогите ему сделать это), и будет докачивать только те серии которых у вас ещё нет. Старые серии при этом не удаляются, а продолжают раздаваться!
Eсли вы уже удалили старые серии, то предотвратить повторную закачку старых серий можно, отжав галочку в соответсвующих местах при запуске нового торрента. По возможности, желательно не удалять старые серии как можно дольше чтобы релизёр не столько продолжал раздавать старые серии, а смог сконцентрироваться на новых.



   Похожие торренты   Торрент   Размер 
В этой теме нет новых непрочитанных сообщений. Великолепный век / Muhtesem Yüzyil [02x25-63] (2011) WEBDLRip | D

313 | 203

39.68 ГБ

В этой теме нет новых непрочитанных сообщений. Великолепный век / Muhtesem Yüzyil [02x25-36] (2011) SATRip | D

61 | 48

16.39 ГБ

В этой теме нет новых непрочитанных сообщений. VA - TOP-100 Зайцев НЕТ [19.12] (2012) MP3

16 | 1

674.36 МБ

В этой теме нет новых непрочитанных сообщений. Зайцев+1 [31] (2012) DVB

0 | 2

575.34 МБ

В этой теме нет новых непрочитанных сообщений. VA - TOP 100 Зайцев.нет (11.01.2012) MP3

4 | 2

656.24 МБ

В этой теме нет новых непрочитанных сообщений. VA - New Top Зайцев 50/50 (2012) MP3

0 | 2

656 МБ

В этой теме нет новых непрочитанных сообщений. VA - TOP 100 Зайцев.нет (22.02.2012) MP3

4 | 2

650.04 МБ




Вы не можете начинать темы
Вы не можете отвечать на сообщения
Вы не можете редактировать свои сообщения
Вы не можете удалять свои сообщения
Вы не можете добавлять вложения

Перейти:  
Для Мосгорсуда, Роскомнадзора и рекламодателей: mosgorsud-torrent[собачка]yandex.ru
 Вход
ppkBB3cker v.2 © 2008-2014 @ PPK
[ Time : 0.047s | 16 Queries | GZIP : Off ]

cron