img image001 image001 image001 image001 image001 image001 image001 image001 image001 image001 image001 image001 image001 image001 image001

Planets Sun Sun Sun
Статистика раздачи
Автор: Снежана | Размер: 5.86 ГБ | Добавлен: 25 июл 2013
Раздают: 152    Качают: 106
Скачать торрент
Скачать торрент
Описание торрента

СообщениеДобавлено: 25 июл 2013 

#77

Информация о фильме
Название: Девочки Гилмор
Оригинальное название: Gilmore Girls
Год выхода: 2000
Жанр: драма, комедия, семейный
Режиссер: Джеми Бэббит /Jamie Babbit/ , Лесли Линка Глаттер /Lesli Linka Glatter/, Гэйл Манкусо /Gail Mancuso/
В ролях: Лорен Грэм /Lauren Graham/, Алексис Бледел /Alexis Bledel/, Кейко Аджена /Keiko Agena/, Скотт Паттерсон /Scott Patterson/, Яник Трусдейл /Yanic Truesdale/, Келли Бишоп /Kelly Bishop/, Эдвард Херрманн /Edward Herrmann/, Мелисса МакКарти /Melissa McCarthy/, Шон Ганн /Sean Gunn/, Лиза Вейл /Liza Weil/

О фильме:
Добро пожаловать в Старз Холлоу! Маленький живописный городок находящийся неподалёку от Гарварда. С населением всего в девять тысяч человек, одним отелем, маленькими магазинчиками, несколькими ресторанами, средней школой, танцевальной студией, видео салоном и единственным в городе… светофором. Здесь и протекает жизнь одинокой молодой мамы, тридцати двух лет, и её шестнадцатилетней дочки. Хотя на первый взгляд их можно принять за сестёр. Они лучшие подруги, разделяют практически всё — от взглядов на мир до вкусов на еду, музыку и кино. Картинка из жизни Лорелай и Рори очень насыщенная, непредсказуема и неординарна. И будьте уверены в том, что с Девочками Гилмор вам никогда не будет скучно!
Официальный сайт

Страна: США
Студия: The Warner Bros. Television Network
Продолжительность: ~ 00:43:00 серия
Перевод: Профессиональный (двухголосый, закадровый) [Hallmark] / Оригинал (английский)

Файл
Кодек: XviD / MP3
Качество: DVDRip
Видео: XviD, 640*480 (1.33:1), 25 fps, ~1048 kbps, 0.14 bit/pixel
Звук:
Аудио RUS: 48 kHz, MPEG Layer 3, 2 ch, ~128 kbps
Аудио ENG: 48 kHz, MPEG Layer 3, 2 ch, ~128 kbps

General
Complete name : C:Gilmore Girls - Season 1gilmore.girls.s01e01.dvdrip.rus.eng.newstudio.tv.avi
Format : AVI
Format/Info : Audio Video Interleave
File size : 400 MiB
Duration : 42mn 22s
Overall bit rate : 1 321 Kbps
Writing application : VirtualDubMod 1.5.10.2 (build 2540/release)
Writing library : VirtualDubMod build 2540/release

Video
ID : 0
Format : MPEG-4 Visual
Format profile : Advanced Simple@L5
Format settings, BVOP : Yes
Format settings, QPel : No
Format settings, GMC : No warppoints
Format settings, Matrix : Default (H.263)
Muxing mode : Packed bitstream
Codec ID : XVID
Codec ID/Hint : XviD
Duration : 42mn 22s
Bit rate : 1 048 Kbps
Width : 640 pixels
Height : 480 pixels
Display aspect ratio : 4:3
Frame rate : 25.000 fps
Resolution : 8 bits
Colorimetry : 4:2:0
Scan type : Progressive
Bits/(Pixel*Frame) : 0.136
Stream size : 318 MiB (79%)
Writing library : XviD 1.2.1 (UTC 2008-12-04)

Audio #1
ID : 1
Format : MPEG Audio
Format version : Version 1
Format profile : Layer 3
Format_Settings_Mode : Joint stereo
Format_Settings_ModeExtension : MS Stereo
Codec ID : 55
Codec ID/Hint : MP3
Duration : 42mn 22s
Bit rate mode : Constant
Bit rate : 128 Kbps
Channel(s) : 2 channels
Sampling rate : 48.0 KHz
Stream size : 38.8 MiB (10%)
Alignment : Aligned on interleaves
Interleave, duration : 40 ms (1.00 video frame)
Interleave, preload duration : 504 ms

Audio #2
ID : 2
Format : MPEG Audio
Format version : Version 1
Format profile : Layer 3
Format_Settings_Mode : Joint stereo
Format_Settings_ModeExtension : MS Stereo
Codec ID : 55
Codec ID/Hint : MP3
Duration : 42mn 22s
Bit rate mode : Variable
Bit rate : 127 Kbps
Nominal bit rate : 128 Kbps
Channel(s) : 2 channels
Sampling rate : 48.0 KHz
Stream size : 38.5 MiB (10%)
Alignment : Aligned on interleaves
Interleave, duration : 24 ms (0.60 video frame)
Interleave, preload duration : 493 ms
Writing library : LAME3.90.
Encoding settings : -m j -V 4 -q 2 -lowpass 17.6 --abr 128



   Похожие торренты   Торрент   Размер 
В этой теме нет новых непрочитанных сообщений. Девочки Гилмор / Gilmore Girls [01x16-21] (2000) DVDRip | P2

33 | 2

2.29 ГБ

В этой теме нет новых непрочитанных сообщений. Девочки Гилмор / Gilmore Girls [s01] (2000) DVD-Remux | P2, L

17 | 55

33.71 ГБ

В этой теме нет новых непрочитанных сообщений. Девочки Гилмор / Gilmore Girls [S02] (2001) DVDRip | P2

19 | 2

7.85 ГБ

В этой теме нет новых непрочитанных сообщений. Девочки Гилмор / Gilmore Girls [s04] (2004) WEB-DL 720p | P2

4 | 9

29.68 ГБ

В этой теме нет новых непрочитанных сообщений. Девочки Гилмор / Gilmore Girls [s05] (2004) WEB-DL 720p | P2

6 | 28

29.52 ГБ

В этой теме нет новых непрочитанных сообщений. Девочки Гилмор / Gilmore Girls [S07] (2006) WEB-DL 720p | P2

8 | 14

28.74 ГБ

В этой теме нет новых непрочитанных сообщений. Девочки Гилмор / Gilmore Girls [s03] (2002) DVD-Remux | P2, L

3 | 2

34.76 ГБ




Вы не можете начинать темы
Вы не можете отвечать на сообщения
Вы не можете редактировать свои сообщения
Вы не можете удалять свои сообщения
Вы не можете добавлять вложения

Перейти:  
Для Мосгорсуда, Роскомнадзора и рекламодателей: mosgorsud-torrent[собачка]yandex.ru
 Вход
ppkBB3cker v.2 © 2008-2014 @ PPK
[ Time : 0.524s | 14 Queries | GZIP : Off ]

Торрент трекер RUTOR.IN, Не можете зайти на rutor.org? Какой новый адрес рутор? Какое зеркало рутор? Не работает rutor.org и зеркала? Тогда наш торрент специально для вас. Rutor.in неофициальное зеркало rutor. В случае если у Вас заблокирован rutor или вдруг Вы не можете на него зайти, то Вы без труда сможете скачать бесплатно и без рекламы последние новинки кино, игр, сериалов и прочего у нас, на Rutor.in. Не нужно использовать прокси, чтобы зайти на рутор, достаточно воспользоваться нашим ресурсом. Все новые фильмы, игры, сериалы, книги и музыка за 2013 и 2014 годы через торрент бесплатно. Скачивайте фильмы в хорошем качестве, игры для пк, xbox, playstation без регистрации. У нас вы найдете новые Зарубежные сериалы и Русские сериалы 2013, 2014, 2015 годов. Оставайтесь с нами, качайте любимые фильмы, игры, сериалы, книги и музыку.