img image001 image001 image001 image001 image001 image001 image001 image001 image001 image001 image001 image001 image001 image001 image001

Planets Sun Sun Sun
Статистика раздачи
Автор: Снежана | Размер: 4.56 ГБ | Добавлен: 25 июл 2013
Раздают: 1    Качают: 1
Скачать торрент
Скачать торрент
Описание торрента

СообщениеДобавлено: 25 июл 2013 

#77

Информация о фильме
Название: Конец Парада
Оригинальное название: Parade’s End
Год выхода: 2012
Жанр: Драма
Режиссер: Сюзанна Уайт / Susanna White
В ролях:
Christopher Tietjens - Бенедикт Камбербэтч / Benedict Cumberbatch (Sherlock, National Theatre Live, Spooks, Nathan Barley, Fortysomething, Cambridge Spies, Silent Witness, To the Ends of the Earth, The Last Enemy)
Sylvia Tietjens - Ребекка Холл / Rebecca Hall (The Prestige, Frost/Nixon, The Town, The Camomile Lawn, Einstein and Eddington, Vicky Cristina Barcelona, Red Riding, Joe's Palace, Please Give)
Valentine Wannop - Эделейд Клеменс / Adelaide Clemens (Rectify, The Pacific, Love My Way, Lie to Me, Pirate Islands: The Lost Treasure of Fiji, Out of the Blue, All Saints)
General Campion - Роджер Аллам / Roger Allam (Game of Thrones, Foyle’s War, Spooks, Inspector Morse, Ashes to Ashes, Between the Lines, Waking the Dead, Endeavour, The Inspector Lynley Mysteries)
Vincent MacMaster - Стивен Грехем / Stephen Graham (Good Cop, Band of Brothers, Boardwalk Empire, This is England’86 (’88), The Lakes, This is England, The Street, Occupation, Accused)
Mrs. Wannop - Миранда Ричардсон / Miranda Richardson (The Storyteller, Absolutely Fabulous, Rubicon, A Dance to the Music of Time, The Life and Times of Vivienne Vyle, Empire of the Sun, Sleepy Hollow, The Hours, The Crying Game)
Reverend Duchemin - Руфус Сьюэлл / Rufus Sewell (Restless, John Adams, The Pillars of the Earth, ShakespeaRe-Told, Middlemarch, Zen, Charles II: The Power & the Passion, Eleventh Hour, Screen Two)

О фильме:
«Конец парада» рассказывает историю любовного треугольника: в одном углу — английский аристократ, в другом — его красавица-жена, а в третьем — юная активистка движения суфражисток.

Полное имя : C:UsersAmberDesktopParade’s EndParade's.End.s01e01.WEB-DL.720p.Rus.Eng.Sub.mkv
Формат : Matroska
Версия формата : Version 2
Размер файла : 1,12 Гбайт
Продолжительность : 59 м.
Режим общего битрейта : Переменный
Общий поток : 2707 Кбит/сек
Дата кодирования : UTC 2012-09-24 21:48:55
Программа кодирования : mkvmerge v5.7.0 ('The Whirlwind') built on Jul 15 2012 00:01:52
Библиотека кодирования : libebml v1.2.2 + libmatroska v1.3.0

Видео
Идентификатор : 1
Формат : AVC
Формат/Информация : Advanced Video Codec
Профиль формата : High@L4.1
Параметр CABAC формата : Да
Параметр ReFrames формата : 6 кадров
Идентификатор кодека : V_MPEG4/ISO/AVC
Продолжительность : 59 м.
Вид битрейта : Переменный
Битрейт : 2270 Кбит/сек
Максимальный битрейт : 3500 Кбит/сек
Ширина : 1280 пикселей
Высота : 720 пикселей
Соотношение сторон : 16:9
Режим частоты кадров : Постоянный
Частота кадров : 25,000 кадров/сек
Стандарт вещания : PAL
Цветовое пространство : YUV
Субдискретизация насыщенности : 4:2:0
Битовая глубина : 8 бит
Тип развёртки : Прогрессивная
Бит/(Пиксели*Кадры) : 0.099
Размер потока : 960 Мбайт (84%)
Заголовок : By a.b.hdtv
Язык : English
Default : Да
Forced : Нет

Аудио #1
Идентификатор : 2
Формат : AC-3
Формат/Информация : Audio Coding 3
Расширение режима : CM (complete main)
Параметр Endianness формата : Big
Идентификатор кодека : A_AC3
Продолжительность : 59 м.
Вид битрейта : Постоянный
Битрейт : 192 Кбит/сек
Каналы : 2 канала
Расположение каналов : Front: L R
Частота : 48,0 КГц
Битовая глубина : 16 бит
Метод сжатия : С потерями
Размер потока : 81,2 Мбайт (7%)
Заголовок : MVO Agatha Studdio 2.0 @ 192 Kbps
Язык : Russian
Default : Да
Forced : Нет

Аудио #2
Идентификатор : 3
Формат : AC-3
Формат/Информация : Audio Coding 3
Расширение режима : CM (complete main)
Параметр Endianness формата : Big
Идентификатор кодека : A_AC3
Продолжительность : 59 м.
Вид битрейта : Постоянный
Битрейт : 192 Кбит/сек
Каналы : 2 канала
Расположение каналов : Front: L R
Частота : 48,0 КГц
Битовая глубина : 16 бит
Метод сжатия : С потерями
Размер потока : 81,2 Мбайт (7%)
Заголовок : Original 2.0 @ 192 Kbps
Язык : English
Default : Нет
Forced : Нет

Текст
Идентификатор : 4
Формат : UTF-8
Идентификатор кодека : S_TEXT/UTF8
Идентификатор кодека/Информация : UTF-8 Plain Text
Заголовок : Eng sub (addic7ed)
Язык : English
Default : Нет
Forced : Нет

Общее
Уникальный идентификатор : 311350963030945841336735758249510053787 (0xEA3C03A89BC0DAE9C896C7AC1E7C279B)
Полное имя : C:UsersAmberDesktopParade’s EndParade's.End.s01e02.WEB-DL.720p.Rus.Eng.Sub.mkv
Формат : Matroska
Версия формата : Version 2
Размер файла : 1,20 Гбайт
Продолжительность : 58 м.
Режим общего битрейта : Переменный
Общий поток : 2916 Кбит/сек
Дата кодирования : UTC 2012-09-24 21:58:44
Программа кодирования : mkvmerge v5.7.0 ('The Whirlwind') built on Jul 15 2012 00:01:52
Библиотека кодирования : libebml v1.2.2 + libmatroska v1.3.0

Видео
Идентификатор : 1
Формат : AVC
Формат/Информация : Advanced Video Codec
Профиль формата : High@L4.1
Параметр CABAC формата : Да
Параметр ReFrames формата : 6 кадров
Идентификатор кодека : V_MPEG4/ISO/AVC
Вид битрейта : Переменный
Битрейт : 2474 Кбит/сек
Максимальный битрейт : 3500 Кбит/сек
Ширина : 1280 пикселей
Высота : 720 пикселей
Соотношение сторон : 16:9
Режим частоты кадров : Переменный
Частота кадров в оригинале : 25,000 кадров/сек
Стандарт вещания : PAL
Цветовое пространство : YUV
Субдискретизация насыщенности : 4:2:0
Битовая глубина : 8 бит
Тип развёртки : Прогрессивная
Заголовок : By a.b.hdtv
Язык : English
Default : Да
Forced : Нет

Аудио #1
Идентификатор : 2
Формат : AC-3
Формат/Информация : Audio Coding 3
Расширение режима : CM (complete main)
Параметр Endianness формата : Big
Идентификатор кодека : A_AC3
Продолжительность : 58 м.
Вид битрейта : Постоянный
Битрейт : 192 Кбит/сек
Каналы : 2 канала
Расположение каналов : Front: L R
Частота : 48,0 КГц
Битовая глубина : 16 бит
Метод сжатия : С потерями
Размер потока : 80,6 Мбайт (7%)
Заголовок : MVO Agatha Studdio 2.0 @ 192 Kbps
Язык : Russian
Default : Да
Forced : Нет

Аудио #2
Идентификатор : 3
Формат : AC-3
Формат/Информация : Audio Coding 3
Расширение режима : CM (complete main)
Параметр Endianness формата : Big
Идентификатор кодека : A_AC3
Продолжительность : 58 м.
Вид битрейта : Постоянный
Битрейт : 192 Кбит/сек
Каналы : 2 канала
Расположение каналов : Front: L R
Частота : 48,0 КГц
Битовая глубина : 16 бит
Метод сжатия : С потерями
Размер потока : 80,6 Мбайт (7%)
Заголовок : Original 2.0 @ 192 Kbps
Язык : English
Default : Нет
Forced : Нет

Текст
Идентификатор : 4
Формат : UTF-8
Идентификатор кодека : S_TEXT/UTF8
Идентификатор кодека/Информация : UTF-8 Plain Text
Заголовок : Eng sub (addic7ed)
Язык : English
Default : Нет
Forced : Нет

Общее
Уникальный идентификатор : 295423281929043179179839987115686734079 (0xDE407459B1CBBA6DB52524D3B635A8FF)
Полное имя : C:UsersAmberDesktopParade’s EndParade's.End.s01e03.WEB-DL.720p.Rus.Eng.Sub.mkv
Формат : Matroska
Версия формата : Version 2
Размер файла : 1,11 Гбайт
Продолжительность : 57 м.
Режим общего битрейта : Переменный
Общий поток : 2747 Кбит/сек
Дата кодирования : UTC 2012-09-24 23:16:59
Программа кодирования : mkvmerge v5.7.0 ('The Whirlwind') built on Jul 15 2012 00:01:52
Библиотека кодирования : libebml v1.2.2 + libmatroska v1.3.0

Видео
Идентификатор : 1
Формат : AVC
Формат/Информация : Advanced Video Codec
Профиль формата : High@L4.1
Параметр CABAC формата : Да
Параметр ReFrames формата : 6 кадров
Идентификатор кодека : V_MPEG4/ISO/AVC
Вид битрейта : Переменный
Битрейт : 2309 Кбит/сек
Максимальный битрейт : 3500 Кбит/сек
Ширина : 1280 пикселей
Высота : 720 пикселей
Соотношение сторон : 16:9
Режим частоты кадров : Переменный
Частота кадров в оригинале : 25,000 кадров/сек
Стандарт вещания : PAL
Цветовое пространство : YUV
Субдискретизация насыщенности : 4:2:0
Битовая глубина : 8 бит
Тип развёртки : Прогрессивная
Заголовок : By a.b.hdtv
Язык : English
Default : Да
Forced : Нет

Аудио #1
Идентификатор : 2
Формат : AC-3
Формат/Информация : Audio Coding 3
Расширение режима : CM (complete main)
Параметр Endianness формата : Big
Идентификатор кодека : A_AC3
Продолжительность : 57 м.
Вид битрейта : Постоянный
Битрейт : 192 Кбит/сек
Каналы : 2 канала
Расположение каналов : Front: L R
Частота : 48,0 КГц
Битовая глубина : 16 бит
Метод сжатия : С потерями
Размер потока : 79,5 Мбайт (7%)
Заголовок : MVO Agatha Studdio 2.0 @ 192 Kbps
Язык : Russian
Default : Да
Forced : Нет

Аудио #2
Идентификатор : 3
Формат : AC-3
Формат/Информация : Audio Coding 3
Расширение режима : CM (complete main)
Параметр Endianness формата : Big
Идентификатор кодека : A_AC3
Продолжительность : 57 м.
Вид битрейта : Постоянный
Битрейт : 192 Кбит/сек
Каналы : 2 канала
Расположение каналов : Front: L R
Частота : 48,0 КГц
Битовая глубина : 16 бит
Метод сжатия : С потерями
Размер потока : 79,5 Мбайт (7%)
Заголовок : Original 2.0 @ 192 Kbps
Язык : English
Default : Нет
Forced : Нет

Текст
Идентификатор : 4
Формат : UTF-8
Идентификатор кодека : S_TEXT/UTF8
Идентификатор кодека/Информация : UTF-8 Plain Text
Заголовок : Eng sub (addic7ed)
Язык : English
Default : Нет
Forced : Нет

Общее
Уникальный идентификатор : 33155713166366077001224254966787159124 (0x18F18EDE6D3B2D2556FF16B0BDFB3454)
Полное имя : C:UsersAmberDesktopParade’s EndParade's.End.s01e04.WEB-DL.720p.Rus.Eng.Sub.mkv
Формат : Matroska
Версия формата : Version 2
Размер файла : 1,13 Гбайт
Продолжительность : 58 м.
Режим общего битрейта : Переменный
Общий поток : 2759 Кбит/сек
Дата кодирования : UTC 2012-09-24 23:36:29
Программа кодирования : mkvmerge v5.7.0 ('The Whirlwind') built on Jul 15 2012 00:01:52
Библиотека кодирования : libebml v1.2.2 + libmatroska v1.3.0

Видео
Идентификатор : 1
Формат : AVC
Формат/Информация : Advanced Video Codec
Профиль формата : High@L4.1
Параметр CABAC формата : Да
Параметр ReFrames формата : 6 кадров
Идентификатор кодека : V_MPEG4/ISO/AVC
Вид битрейта : Переменный
Битрейт : 2320 Кбит/сек
Максимальный битрейт : 3500 Кбит/сек
Ширина : 1280 пикселей
Высота : 720 пикселей
Соотношение сторон : 16:9
Режим частоты кадров : Переменный
Частота кадров в оригинале : 25,000 кадров/сек
Стандарт вещания : PAL
Цветовое пространство : YUV
Субдискретизация насыщенности : 4:2:0
Битовая глубина : 8 бит
Тип развёртки : Прогрессивная
Заголовок : By a.b.hdtv
Язык : English
Default : Да
Forced : Нет

Аудио #1
Идентификатор : 2
Формат : AC-3
Формат/Информация : Audio Coding 3
Расширение режима : CM (complete main)
Параметр Endianness формата : Big
Идентификатор кодека : A_AC3
Продолжительность : 58 м.
Вид битрейта : Постоянный
Битрейт : 192 Кбит/сек
Каналы : 2 канала
Расположение каналов : Front: L R
Частота : 48,0 КГц
Битовая глубина : 16 бит
Метод сжатия : С потерями
Размер потока : 80,8 Мбайт (7%)
Заголовок : MVO Agatha Studdio 2.0 @ 192 Kbps
Язык : Russian
Default : Да
Forced : Нет

Аудио #2
Идентификатор : 3
Формат : AC-3
Формат/Информация : Audio Coding 3
Расширение режима : CM (complete main)
Параметр Endianness формата : Big
Идентификатор кодека : A_AC3
Продолжительность : 58 м.
Вид битрейта : Постоянный
Битрейт : 192 Кбит/сек
Каналы : 2 канала
Расположение каналов : Front: L R
Частота : 48,0 КГц
Битовая глубина : 16 бит
Метод сжатия : С потерями
Размер потока : 80,8 Мбайт (7%)
Заголовок : Original 2.0 @ 192 Kbps
Язык : English
Default : Нет
Forced : Нет

Текст
Идентификатор : 4
Формат : UTF-8
Идентификатор кодека : S_TEXT/UTF8
Идентификатор кодека/Информация : UTF-8 Plain Text
Заголовок : Eng sub (addic7ed)
Язык : English
Default : Нет
Forced : Нет


Страна: Великобритания
Студия: BBC
Продолжительность: 00:58:30
Перевод: Профессиональный многоголосый закадровый (Agatha Studdio)
Автор перевода: vipere

Файл
Кодек: H.264/AVC
Качество: WEB-DL
Видео: AVC, 1280x720, 25fps, ~ 2300 Kbps, 0,100bps
Звук:
Аудио 1 RUS: A_AC3, 48,0KHz, 2ch, 192Kbps, MVO Agatha Studdio
Аудио 2 ENG: A_AC3, 48,0KHz, 2ch, 192Kbps
Субтитры:
Русские субтитры: нет
Субтитры английские: есть

Семпл




   Похожие торренты   Торрент   Размер 
В этой теме нет новых непрочитанных сообщений. Конец парада / Parade's End [S01] (2012) HDTVRip | P

86 | 3

3.76 ГБ

В этой теме нет новых непрочитанных сообщений. Конец парада / Parade's End [S01] (2012) WEB-DLRip от Baibako

4 | 1

3.86 ГБ

В этой теме нет новых непрочитанных сообщений. Конец парада / Parade's End [01х01-05 из 05] (2012) HDRip от Scarabey | Р

19 | 3

3.65 ГБ

В этой теме нет новых непрочитанных сообщений. Конец парада / Parade's End [S01] (2012) BDRip 720p от MediaClub | Домашний, Agatha Studdio

39 | 37

16.07 ГБ

В этой теме нет новых непрочитанных сообщений. Госдеп - 3 с Ксенией Собчак. Конец YouTube: конец света? [эфир от 23.09.2012] (2012) WEBRip от РиперАМ

0 | 2

503.3 МБ

В этой теме нет новых непрочитанных сообщений. Парад смерти / Death Parade [01x01] (2015) HDTV | ViruseProject & OpenDub

13 | 2

334.52 МБ

В этой теме нет новых непрочитанных сообщений. Парад смерти / Death Parade [01x01-04] (2015) HDTV 720p | ViruseProject & OpenDub

2 | 2

1.23 ГБ




Вы не можете начинать темы
Вы не можете отвечать на сообщения
Вы не можете редактировать свои сообщения
Вы не можете удалять свои сообщения
Вы не можете добавлять вложения

Перейти:  
Для Мосгорсуда, Роскомнадзора и рекламодателей: mosgorsud-torrent[собачка]yandex.ru
 Вход
ppkBB3cker v.2 © 2008-2014 @ PPK
[ Time : 0.028s | 14 Queries | GZIP : On ]

Торрент трекер RUTOR.IN, Не можете зайти на rutor.org? Какой новый адрес рутор? Какое зеркало рутор? Не работает rutor.org и зеркала? Тогда наш торрент специально для вас. Rutor.in неофициальное зеркало rutor. В случае если у Вас заблокирован rutor или вдруг Вы не можете на него зайти, то Вы без труда сможете скачать бесплатно и без рекламы последние новинки кино, игр, сериалов и прочего у нас, на Rutor.in. Не нужно использовать прокси, чтобы зайти на рутор, достаточно воспользоваться нашим ресурсом. Все новые фильмы, игры, сериалы, книги и музыка за 2013 и 2014 годы через торрент бесплатно. Скачивайте фильмы в хорошем качестве, игры для пк, xbox, playstation без регистрации. У нас вы найдете новые Зарубежные сериалы и Русские сериалы 2013, 2014, 2015 годов. Оставайтесь с нами, качайте любимые фильмы, игры, сериалы, книги и музыку.