img image001 image001 image001 image001 image001 image001 image001 image001 image001 image001 image001 image001 image001 image001 image001

Planets Sun Sun Sun
Статистика раздачи
Автор: Снежана | Размер: 8.74 ГБ | Добавлен: 25 июл 2013
Раздают: 12    Качают: 10
Скачать торрент
Скачать торрент
Описание торрента

СообщениеДобавлено: 25 июл 2013 

#77
Год выпуска: 1997
Страна: США, Канада

Жанр: боевик, фантастика, комедия, приключения, детский
Продолжительность: серия ~ 20 минут (08:55:00)

Перевод: Профессиональный (полное дублирование) - [Петербург - Пятый канал]
Cубтитры: нет
Оригинальная аудиодорожка: нет

Режиссёр: Роберт Ли, Рэймонд Шоу, Эд Эндерс, Ричард Флауэр

В ролях: Венус Де Мило — Николь Паркер, Лалаиниа Линдбжерг, Донателло — Джейсон Грей Стенфорд, Ричард Йоу, Микеланджело — Кирби Морроу, Джаред Бланшар, Леонардо — Майкл Добсон, Гейб Коут, Рафаэль — Мэтт Хилл, Митчел А. Ли Юэн, Сплинтер — Стефен Мендел, Повелитель Драконов — Лорэн Аттадиа, Шреддер — Пол Бэкер

Описание: Черепашки-ниндзя подросли и вместе с мастером Сплинтером нашли себе новое убежище.
Но клан Большой Ноги выследил их и ворвался в их новое логово, разрушая всё на своём пути. Черепахам снова приходится бороться с нечистью. А в это время в Китае объявляется новая черепашка-ниндзя — сестра подростков-черепах, 5-я в семье. Её зовут Венус де Мило. В первой серии погибает Шреддер, но появляется новый враг — китайский Повелитель Драконов. Девушка встречается с черепашками, рассказывает им о своей невероятной жизни и предлагает помочь обучиться манипуляциям в Королевстве Мечты. Команде все удается, они находят Сплинтера, но когда возвращаются, видят перед собой Лорда Дракона и его армию. Смогут ли наши герои их атаковать? Или же всему человечеству грозит опасность от злодеяний Лорда Дракона?





Качество: TVRip-AVC
Формат: MKV

Видео: 688x570@760х570 (4:3), 25 fps, H264 ~ 2085 kbps avg, 0.213 bit/pixel
Видео на 2 диске: 688x570@760х570 (4:3), 25 fps, H264 ~ 2363 kbps avg, 0.241 bit/pixel)
Аудио: 48 kHz, АС3, 2 ch, 192.00 kbps
Аудио на 2 диске: 48 kHz, АС3, 2 ch, 256.00 kbps

На 2 DVD5
1 диск
Общее
Полное имя : Cherepashki.Nindzja.Novaja.mutacija.1997Disc 1�1. East Meets West (Part 1).mkv
Формат : Matroska
Версия формата : Version 2
Размер файла : 333 Мбайт
Продолжительность : 20 м.
Общий поток : 2279 Кбит/сек
Дата кодирования : UTC 2012-04-17 23:23:39
Программа кодирования : mkvmerge v5.0.1 ('Es ist Sommer') built on Nov 6 2011 16:23:40
Библиотека кодирования : libebml v1.2.2 + libmatroska v1.3.0

Видео
Идентификатор : 1
Формат : AVC
Формат/Информация : Advanced Video Codec
Профиль формата : High@L4.1
Параметр CABAC формата : Да
Параметр ReFrames формата : 11 кадров
Идентификатор кодека : V_MPEG4/ISO/AVC
Продолжительность : 20 м.
Битрейт : 2085 Кбит/сек
Ширина : 688 пикселей
Высота : 570 пикселей
Соотношение сторон : 4:3
Соотношение сторон в оригинале : 4:3
Частота кадров : 25,000 кадров/сек
Цветовое пространство : YUV
Субдискретизация насыщенности : 4:2:0
Битовая глубина : 8 бит
Тип развёртки : Прогрессивная
Бит/(Пиксели*Кадры) : 0.213
Размер потока : 299 Мбайт (90%)
Библиотека кодирования : x264 core 119 r2106 07efeb4
Настройки программы : cabac=1 / ref=11 / deblock=1:-2:-1 / analyse=0x3:0x113 / me=umh / subme=9 / psy=1 / psy_rd=1.00:0.20 / mixed_ref=1 / me_range=32 / chroma_me=1 / trellis=1 / 8x8dct=1 / cqm=0 / deadzone=21,11 / fast_pskip=0 / chroma_qp_offset=-3 / threads=3 / sliced_threads=0 / nr=0 / decimate=0 / interlaced=0 / bluray_compat=0 / constrained_intra=0 / bframes=8 / b_pyramid=2 / b_adapt=2 / b_bias=0 / direct=3 / weightb=1 / open_gop=0 / weightp=2 / keyint=250 / keyint_min=25 / scenecut=40 / intra_refresh=0 / rc_lookahead=60 / rc=2pass / mbtree=1 / bitrate=2085 / ratetol=1.0 / qcomp=0.60 / qpmin=0 / qpmax=69 / qpstep=4 / cplxblur=20.0 / qblur=0.5 / ip_ratio=1.40 / aq=1:1.00
Default : Да
Forced : Нет

Аудио
Идентификатор : 2
Формат : AC-3
Формат/Информация : Audio Coding 3
Расширение режима : CM (complete main)
Идентификатор кодека : A_AC3
Продолжительность : 20 м.
Вид битрейта : Постоянный
Битрейт : 192 Кбит/сек
Каналы : 2 канала
Расположение каналов : Front: L R
Частота : 48,0 КГц
Битовая глубина : 16 бит
Метод сжатия : С потерями
Размер потока : 28,1 Мбайт (8%)
Default : Да
Forced : Нет

2 диск
Общее
Полное имя : Cherepashki.Nindzja.Novaja.mutacija.1997Cherepashki.Nindzja.Novaja.mutacija.1997.TVRip-AVCDisc 223. Unchain My Heart (Part 3).mkv
Формат : Matroska
Версия формата : Version 2
Размер файла : 385 Мбайт
Продолжительность : 20 м.
Общий поток : 2621 Кбит/сек
Дата кодирования : UTC 2012-04-21 08:00:28
Программа кодирования : mkvmerge v5.2.0 ('I can't explain') built on Dec 18 2011 18:12:03
Библиотека кодирования : libebml v1.2.3 + libmatroska v1.3.0

Видео
Идентификатор : 1
Формат : AVC
Формат/Информация : Advanced Video Codec
Профиль формата : High@L4.1
Параметр CABAC формата : Да
Параметр ReFrames формата : 11 кадров
Идентификатор кодека : V_MPEG4/ISO/AVC
Продолжительность : 20 м.
Битрейт : 2363 Кбит/сек
Ширина : 688 пикселей
Высота : 570 пикселей
Соотношение сторон : 4:3
Соотношение сторон в оригинале : 4:3
Частота кадров : 25,000 кадров/сек
Цветовое пространство : YUV
Субдискретизация насыщенности : 4:2:0
Битовая глубина : 8 бит
Тип развёртки : Прогрессивная
Бит/(Пиксели*Кадры) : 0.241
Размер потока : 340 Мбайт (88%)
Библиотека кодирования : x264 core 119 r2106 07efeb4
Настройки программы : cabac=1 / ref=11 / deblock=1:-2:-1 / analyse=0x3:0x113 / me=umh / subme=9 / psy=1 / psy_rd=1.00:0.20 / mixed_ref=1 / me_range=32 / chroma_me=1 / trellis=1 / 8x8dct=1 / cqm=0 / deadzone=21,11 / fast_pskip=0 / chroma_qp_offset=-3 / threads=3 / sliced_threads=0 / nr=0 / decimate=0 / interlaced=0 / bluray_compat=0 / constrained_intra=0 / bframes=8 / b_pyramid=2 / b_adapt=2 / b_bias=0 / direct=3 / weightb=1 / open_gop=0 / weightp=2 / keyint=250 / keyint_min=25 / scenecut=40 / intra_refresh=0 / rc_lookahead=60 / rc=2pass / mbtree=1 / bitrate=2363 / ratetol=1.0 / qcomp=0.60 / qpmin=0 / qpmax=69 / qpstep=4 / cplxblur=20.0 / qblur=0.5 / ip_ratio=1.40 / aq=1:1.00
Default : Да
Forced : Нет

Аудио
Идентификатор : 2
Формат : AC-3
Формат/Информация : Audio Coding 3
Расширение режима : CM (complete main)
Идентификатор кодека : A_AC3
Продолжительность : 20 м.
Вид битрейта : Постоянный
Битрейт : 256 Кбит/сек
Каналы : 2 канала
Расположение каналов : Front: L R
Частота : 48,0 КГц
Битовая глубина : 16 бит
Метод сжатия : С потерями
Размер потока : 37,6 Мбайт (10%)
Default : Да
Forced : Нет



Disc 1:
01. East Meets West (Part 1)
02. East Meets West (Part 2)
03. East Meets West (Part 3)
04. East Meets West (Part 4)
05. East Meets West (Part 5)
06. Staff Of Bu-Ki
07. Silver & Gold
08. Meet Dr. Quease
09. All In The Family
10. Trusting Dr. Quease
11. Windfall
12. Turtles Night Out
13. Mutant Reflections
14. Truce Or Consequence

Disc 2:
15. Sewer Crash
16. Going Ape
17. Enemy Of My Enemy
18. King Wick
19. The Good Dragon
20. The Guest
21. Unchain My Heart (Part 1)
22. Unchain My Heart (Part 2)
23. Unchain My Heart (Part 3)
24. Unchain My Heart (Part 4)
25. Like Brothers
26. Who Needs Her

Раздача от:



   Похожие торренты   Торрент   Размер 
В этой теме нет новых непрочитанных сообщений. Черепашки-ниндзя / Черепашки Мутанты Ниндзя / Teenage Mutant Ninja Turtles [02x01-22] (2013-2014) WEB-DLRip

73 | 44

4.11 ГБ

В этой теме нет новых непрочитанных сообщений. Черепашки-ниндзя / Черепашки Мутанты Ниндзя / Teenage Mutant Ninja Turtles [03x01-06] (2014-2015) WEB-DLRip

547 | 66

1.19 ГБ

В этой теме нет новых непрочитанных сообщений. Черепашки-ниндзя / Черепашки Мутанты Ниндзя / Teenage Mutant Ninja Turtles [02x01-24] (2013-2014) WEB-DLRip

309 | 53

4.49 ГБ

В этой теме нет новых непрочитанных сообщений. Черепашки-ниндзя / Черепашки Мутанты Ниндзя / Teenage Mutant Ninja Turtles [03x01-08] (2014-2015) WEB-DLRip

381 | 35

1.6 ГБ

В этой теме нет новых непрочитанных сообщений. Черепашки-ниндзя / Черепашки Мутанты Ниндзя / Teenage Mutant Ninja Turtles [02x01-22] (2013) WEB-DLRip

59 | 16

4.07 ГБ

В этой теме нет новых непрочитанных сообщений. Черепашки-ниндзя / Черепашки Мутанты Ниндзя / Teenage Mutant Ninja Turtles [S02] (2013-2014) WEB-DLRip

228 | 59

4.87 ГБ

В этой теме нет новых непрочитанных сообщений. Черепашки-ниндзя / Черепашки Мутанты Ниндзя / Teenage Mutant Ninja Turtles [S02x01-07] (2013) WEB-DLRip

27 | 8

1.31 ГБ




Вы не можете начинать темы
Вы не можете отвечать на сообщения
Вы не можете редактировать свои сообщения
Вы не можете удалять свои сообщения
Вы не можете добавлять вложения

Перейти:  
Для Мосгорсуда, Роскомнадзора и рекламодателей: mosgorsud-torrent[собачка]yandex.ru
 Вход
ppkBB3cker v.2 © 2008-2014 @ PPK
[ Time : 0.027s | 15 Queries | GZIP : Off ]

Торрент трекер RUTOR.IN, Не можете зайти на rutor.org? Какой новый адрес рутор? Какое зеркало рутор? Не работает rutor.org и зеркала? Тогда наш торрент специально для вас. Rutor.in неофициальное зеркало rutor. В случае если у Вас заблокирован rutor или вдруг Вы не можете на него зайти, то Вы без труда сможете скачать бесплатно и без рекламы последние новинки кино, игр, сериалов и прочего у нас, на Rutor.in. Не нужно использовать прокси, чтобы зайти на рутор, достаточно воспользоваться нашим ресурсом. Все новые фильмы, игры, сериалы, книги и музыка за 2013 и 2014 годы через торрент бесплатно. Скачивайте фильмы в хорошем качестве, игры для пк, xbox, playstation без регистрации. У нас вы найдете новые Зарубежные сериалы и Русские сериалы 2013, 2014, 2015 годов. Оставайтесь с нами, качайте любимые фильмы, игры, сериалы, книги и музыку.