img image001 image001 image001 image001 image001 image001 image001 image001 image001 image001 image001 image001 image001 image001 image001

Planets Sun Sun Sun
Статистика раздачи
Автор: Снежана | Размер: 4.38 ГБ | Добавлен: 25 июл 2013
Раздают: 24    Качают: 11
Скачать торрент
Скачать торрент
Описание торрента

СообщениеДобавлено: 25 июл 2013 


Выпущено: Россия КАРО-Продакшн (СТС)
Дата российской премьеры: 12 марта 2012
Дата выхода DVD: 7 мая 2012, «Новый Диск»
Жанр: боевик, приключения
Продолжительность: ~200 (8 x 00:48:00)
Субтитры: нет
Режиссёр: Михаил Шевчук
В ролях: Сергей Чирков, Павел Прилучный, Агата Муцениеце, Нодар Сирадзе, Евгений Харланов, Борис Тенин, Юрий Кригер, Сергей Сериков, Анна Васильева, Светлана Изотова, Илья Сысоев, Иван Соловьев, Евгения Лапова, Роман Савченко, Юрий Сысоев, Анатолий Филиппов, Игорь Мещерин, Джульетта Казакевич

Описание:
«Игры кончились. Но остались те, кто помнит, как в них играть.»

Восьмисерийный сериал продолжает и развивает историю кинодилогии Павла Санаева "На игре". Кто-то из прежних героев погиб, кто-то попал в тюрьму — а значит таинственным высокопоставленным силам нужны новые идеальные солдаты для выполнения их античеловеческих планов.
За дело готов взяться только Док. Он жив, он жаждет мести и готов на всё. Ничего не изменилось. Люди для Дока — грязь, а человеческая жизнь — ничто. Конфликты обостряются до предела, а герои не остановятся ни перед чем. Одни — во имя смерти и победы любой ценой, другие — во имя жизни и всё еще возможного счастья...



Диск 1 Диск 2


Размер рипа позволяет записать его на 1 DVD

Тип релиза: DVDRip
Контейнер: AVI
Видео: 656x368 (1.78:1), 25 fps, XviD build 65 ~1488 kbps avg, 0.25 bit/pixel
Аудио: 48 kHz, MPEG Layer 3, 2 ch, ~128.00 kbps avg


Код:
Complete name                    : Geymery.(5.seriya.iz.8).2012.DVDRip.XviD.avi
Format                           : AVI
Format/Info                      : Audio Video Interleave
File size                        : 559 MiB
Duration                         : 48mn 2s
Overall bit rate                 : 1 627 Kbps
Writing application              : FairUse Wizard
Writing library                  : The best and REALLY easy backup tool
Video
ID                               : 0
Format                           : MPEG-4 Visual
Format profile                   : Advanced Simple@L5
Format settings, BVOP            : Yes
Format settings, QPel            : No
Format settings, GMC             : No warppoints
Format settings, Matrix          : Custom
Codec ID                         : XVID
Codec ID/Hint                    : XviD
Duration                         : 48mn 2s
Bit rate                         : 1 489 Kbps
Width                            : 656 pixels
Height                           : 368 pixels
Display aspect ratio             : 16:9
Frame rate                       : 25.000 fps
Color space                      : YUV
Chroma subsampling               : 4:2:0
Bit depth                        : 8 bits
Scan type                        : Progressive
Bits/(Pixel*Frame)               : 0.247
Stream size                      : 512 MiB (92%)
Writing library                  : XviD 65
Audio
ID                               : 1
Format                           : MPEG Audio
Format version                   : Version 1
Format profile                   : Layer 3
Mode                             : Joint stereo
Mode extension                   : MS Stereo
Codec ID                         : 55
Codec ID/Hint                    : MP3
Duration                         : 48mn 2s
Bit rate mode                    : Constant
Bit rate                         : 128 Kbps
Channel(s)                       : 2 channels
Sampling rate                    : 48.0 KHz
Stream size                      : 44.0 MiB (8%)
Alignment                        : Split accross interleaves
Interleave, duration             : 40 ms (1.00 video frame)
Interleave, preload duration     : 500 ms












Раздача от:



   Похожие торренты   Торрент   Размер 
В этой теме нет новых непрочитанных сообщений. Геймеры [01-08 из 08] (2012) DVDRip-AVC

13 | 5

9.36 ГБ

В этой теме нет новых непрочитанных сообщений. Геймеры [01-08 из 08] (2012) DVDRip | Лицензия

79 | 33

5.47 ГБ

В этой теме нет новых непрочитанных сообщений. Геймеры [01-08 из 08] (2012) DVDRip | КПК от Kino@rena

10 | 2

1.22 ГБ

В этой теме нет новых непрочитанных сообщений. Геймеры [01-08 из 08] (2012) 2хDVD9

3 | 4

15.49 ГБ

В этой теме нет новых непрочитанных сообщений. Геймеры [01-08 из 08] (2012) SATRip | КПК от Vitalik76

0 | 1

2.46 ГБ

В этой теме нет новых непрочитанных сообщений. Геймеры: Эра АНТОНа / Avengers: Age of Ultron (2016) HDRip | Смешной перевод

130 | 15

1.45 ГБ

В этой теме нет новых непрочитанных сообщений. Геймеры: Эра АНТОНа / Avengers: Age of Ultron (2016) BDRip 720p | Смешной перевод

88 | 9

4.4 ГБ




Вы не можете начинать темы
Вы не можете отвечать на сообщения
Вы не можете редактировать свои сообщения
Вы не можете удалять свои сообщения
Вы не можете добавлять вложения

Перейти:  
Для Мосгорсуда, Роскомнадзора и рекламодателей: mosgorsud-torrent[собачка]yandex.ru
 Вход
ppkBB3cker v.2 © 2008-2014 @ PPK
[ Time : 0.049s | 15 Queries | GZIP : Off ]

cron