img image001 image001 image001 image001 image001 image001 image001 image001 image001 image001 image001 image001 image001 image001 image001

Planets Sun Sun Sun
Статистика раздачи
Автор: Снежана | Размер: 2.72 ГБ | Добавлен: 25 июл 2013
Раздают: 7    Качают: 2
Скачать торрент
Скачать торрент
Описание торрента

СообщениеДобавлено: 25 июл 2013 

#77

Информация о фильме
Название: Великолепный век
Оригинальное название: Muhtesem Yüzyil
Год выхода: 2012
Жанр: драма, мелодрама, военный, биография, история
Режиссер: Дурул Тайлан / Durul Taylan, Ягмур Тайлан / Yagmur Taylan
В ролях: Небахат Чехре /Nebahat Çehre/, Окан Ялабик /Okan Yalabik/, Сельма Эргеч /Selma Ergeç/, Халит Эргенч /Halit Ergenç/, Филиз Ахмет /Filiz Ahmet/

О фильме:
Сюжет основан на реальных событиях, произошедших во времена правления султана Сулеймана I, и расказывает о периоде жизни девушки Роксоланы, взятой в плен турками и названной Хюррем. Позже она стала первой официальной женой Сулеймана, но для этого ей пришлось пройти сложный путь…

Страна: Турция
Продолжительность: ~ 100 минут серия
Перевод: Любительский (многоголосый закадровый) [М. Кенс, Д. Толмачева, Kira] по переводу Meliss, Ldinka

Файл
Кодек: XviD / AC3
Качество: SATRip
Видео: XviD, 704х400, 25.000 fps, 1389 kbps, 0,197 bit/pixel
Звук:
Аудио #1: AC3, 48 KHz, stereo, 192 Kbps (Русский)
Аудио #2: AC3, 44.1 KHz, stereo, 192 Kbps (Турецкий)

Sample
General
Complete name : D:Îçâó÷êà ÂÂÂåëèêîëåïíûé âåê 64.avi
Format : AVI
Format/Info : Audio Video Interleave
File size : 1.36 GiB
Duration : 1h 48mn
Overall bit rate : 1 788 Kbps
Writing application : VirtualDubMod 1.5.10.3 | www.virtualdub-fr.org || (build 2550/release)
Writing library : VirtualDubMod build 2550/release

Video
ID : 0
Format : MPEG-4 Visual
Format profile : AdvancedSimple@L5
Format settings, BVOP : Yes
Format settings, QPel : No
Format settings, GMC : No warppoints
Format settings, Matrix : Default (MPEG)
Codec ID : XVID
Codec ID/Hint : XviD
Duration : 1h 48mn
Bit rate : 1 389 Kbps
Width : 704 pixels
Height : 400 pixels
Display aspect ratio : 16:9
Frame rate : 25.000 fps
Resolution : 24 bits
Colorimetry : 4:2:0
Scan type : Progressive
Bits/(Pixel*Frame) : 0.197
Stream size : 1.06 GiB (78%)
Writing library : XviD 1.2.1 (UTC 2008-12-04)

Audio #1
ID : 1
Format : AC-3
Format/Info : Audio Coding 3
Codec ID : 2000
Duration : 1h 48mn
Bit rate mode : Constant
Bit rate : 192 Kbps
Channel(s) : 2 channels
Channel positions : L R
Sampling rate : 48.0 KHz
Stream size : 149 MiB (11%)
Alignment : Split accross interleaves
Interleave, duration : 40 ms (1.00 video frame)
Interleave, preload duration : 500 ms

Audio #2
ID : 2
Format : AC-3
Format/Info : Audio Coding 3
Codec ID : 2000
Duration : 1h 48mn
Bit rate mode : Constant
Bit rate : 192 Kbps
Channel(s) : 2 channels
Channel positions : L R
Sampling rate : 48.0 KHz
Stream size : 149 MiB (11%)
Alignment : Split accross interleaves
Interleave, duration : 40 ms (1.00 video frame)
Interleave, preload duration : 500 ms



   Похожие торренты   Торрент   Размер 
В этой теме нет новых непрочитанных сообщений. Великолепный век / Muhtesem Yüzyil [03x64-87] (2012-2013) WEBDLRip | D

1 | 7

18.4 ГБ

В этой теме нет новых непрочитанных сообщений. Великолепный век / Muhtesem Yüzyil [03x64-103] (2012-2013) HDTVRip | L1

62 | 97

42.75 ГБ

В этой теме нет новых непрочитанных сообщений. Великолепный век / Muhtesem Yüzyil [03x64-109] (2012-2013) WEBDLRip | D

702 | 375

35.53 ГБ

В этой теме нет новых непрочитанных сообщений. Великолепный век / Muhtesem Yüzyil [02x63] (2012) SATRip | D

50 | 3

1.56 ГБ

В этой теме нет новых непрочитанных сообщений. Великолепный век / Muhtesem Yüzyil [S01x01-24 из 24] (2011) SATRip | D

496 | 284

28.48 ГБ

В этой теме нет новых непрочитанных сообщений. Великолепный век / Muhtesem Yüzyil [02x25-36] (2011) SATRip | D

61 | 48

16.39 ГБ

В этой теме нет новых непрочитанных сообщений. Великолепный век / Muhtesem Yüzyil [04x01-36] (2013) WEBDLRip, SATRip | D

5 | 4

30.06 ГБ




Вы не можете начинать темы
Вы не можете отвечать на сообщения
Вы не можете редактировать свои сообщения
Вы не можете удалять свои сообщения
Вы не можете добавлять вложения

Перейти:  
Для Мосгорсуда, Роскомнадзора и рекламодателей: mosgorsud-torrent[собачка]yandex.ru
 Вход
ppkBB3cker v.2 © 2008-2014 @ PPK
[ Time : 0.052s | 15 Queries | GZIP : Off ]

cron