img image001 image001 image001 image001 image001 image001 image001 image001 image001 image001 image001 image001 image001 image001 image001

Planets Sun Sun Sun
Статистика раздачи
Автор: Снежана | Размер: 4.36 ГБ | Добавлен: 25 июл 2013
Раздают: 4    Качают: 3
Скачать торрент
Скачать торрент
Описание торрента

СообщениеДобавлено: 25 июл 2013 

#77
Год выпуска: 2012
Страна: Россия
Студия: «Соло Фильм», «Централ Партнершип»
Жанр: драма, история
Продолжительность: серия ~ 50 мин.

Перевод: не требуется
Субтитры: нет
Оригинальная аудиодорожка: русский

Режиссер: Игорь Зайцев

В ролях: Евгений Дятлов, Андрей Мерзликин, Светлана Фролова, Мария Гузеева, Олег Лопухов, Максим Литовченко, Виктор Добронравов, Семён Стругачёв, Артем Черненко, Иван Кокорин, Александр Коршунов, Владимир Зайцев, Сергей Тарамаев, Александр Берда, Сергей Беляев, Виктор Тереля, Александр Резалин, Анастасия Макеева, Валерия Дмитриева, Марина Барсукова, Анатолий Зиновенко, Дмитрий Архангельский, Павел Галич.

Описание: Рассказ о неизвестных страницах из жизни комбрига Валерия Чкалова, чья биография полна тайн, долгие годы тщательно скрывавшихся от глаз и ушей народа, и одновременно - история становления авиации в нашей стране. Начинается повествование с периода учебы Валерия Павловича, а заканчивается его легендарным беспосадочным перелетом из СССР в США в 1937 году...





Исходник: DVB
Качество видео: SATRip-AVC
Формат видео: MKV

Видео: 720х570@1024x570 (16:9), 25 fps, H264 ~ 1360 kbps avg, 0.133 bit/pixel
Аудио: 48 kHz, AC3 2 ch, 192.00 kbps Constant

Раздача от:
Общее
Полное имя : Chkalov.2012.O.SATRip-AVC_[Youtracker]_by_AVP Studio�4.mkv
Формат : Matroska
Версия формата : Version 2
Размер файла : 537 Мбайт
Продолжительность : 48 м.
Общий поток : 1553 Кбит/сек
Дата кодирования : UTC 2012-10-05 13:18:56
Программа кодирования : mkvmerge v5.0.1 ('Es ist Sommer') built on Nov 6 2011 16:23:40
Библиотека кодирования : libebml v1.2.2 + libmatroska v1.3.0

Видео
Идентификатор : 1
Формат : AVC
Формат/Информация : Advanced Video Codec
Профиль формата : High@L4.1
Параметр CABAC формата : Да
Параметр ReFrames формата : 11 кадров
Идентификатор кодека : V_MPEG4/ISO/AVC
Продолжительность : 48 м.
Битрейт : 1360 Кбит/сек
Ширина : 720 пикселей
Высота : 570 пикселей
Соотношение сторон : 16:9
Соотношение сторон в оригинале : 16:9
Частота кадров : 25,000 кадров/сек
Цветовое пространство : YUV
Субдискретизация насыщенности : 4:2:0
Битовая глубина : 8 бит
Тип развёртки : Прогрессивная
Бит/(Пиксели*Кадры) : 0.133
Размер потока : 460 Мбайт (86%)
Библиотека кодирования : x264 core 119 r2106 07efeb4
Настройки программы : cabac=1 / ref=11 / deblock=1:-2:-1 / analyse=0x3:0x113 / me=umh / subme=9 / psy=1 / psy_rd=1.00:0.20 / mixed_ref=1 / me_range=32 / chroma_me=1 / trellis=1 / 8x8dct=1 / cqm=0 / deadzone=21,11 / fast_pskip=0 / chroma_qp_offset=-3 / threads=3 / sliced_threads=0 / nr=0 / decimate=0 / interlaced=0 / bluray_compat=0 / constrained_intra=0 / bframes=8 / b_pyramid=2 / b_adapt=2 / b_bias=0 / direct=3 / weightb=1 / open_gop=0 / weightp=2 / keyint=250 / keyint_min=25 / scenecut=40 / intra_refresh=0 / rc_lookahead=60 / rc=2pass / mbtree=1 / bitrate=1360 / ratetol=1.0 / qcomp=0.60 / qpmin=0 / qpmax=69 / qpstep=4 / cplxblur=20.0 / qblur=0.5 / ip_ratio=1.40 / aq=1:1.00
Default : Да
Forced : Нет

Аудио
Идентификатор : 2
Формат : AC-3
Формат/Информация : Audio Coding 3
Расширение режима : CM (complete main)
Идентификатор кодека : A_AC3
Продолжительность : 48 м.
Вид битрейта : Постоянный
Битрейт : 192 Кбит/сек
Каналы : 2 канала
Расположение каналов : Front: L R
Частота : 48,0 КГц
Битовая глубина : 16 бит
Метод сжатия : С потерями
Размер потока : 66,4 Мбайт (12%)
Default : Да
Forced : Нет

1-я серия
СССР, 1924 год. Два друга-летчика Валерий Чкалов и Александр Анисимов – лучшие курсанты Серпуховской летной школы. Как талантливые и перспективные, они получают распределение в Ленинградскую Краснознамeнную истребительную эскадрилью. Молодым хулиганам нет равных в небе, однако их дружбу на прочность испытывает знакомство с очаровательной пианисткой Ольгой Ореховой…
2-я серия
Чтобы поразить любимую Олю в день еe рождения – Чкалов пролетает под Троицким мостом. Соперничество за сердце Ольги грозит Чкалову и Анисимову серьезными дисциплинарными взысканиями. Девушка наконец-то делает выбор в пользу Валеры. Однако Чкаловым недолго приходится наслаждаться тихим семейным счастьем – Валерия переводят в Брянскую авиационную эскадрилью.
3-я серия
После произошедшего, приговором военного трибунала Чкалов приговорен к одному году лишения свободы и уволен из Красной Армии. Однако отбывать наказание летчику приходится недолго: благодаря ходатайству своих заступников, менее чем через месяц наказание заменяют на условное. После освобождения из Брянской тюрьмы Валерий знакомится с роковой красоткой Марго…
4-я серия
Черная полоса Чкалова заканчивается: по высокой протекции он восстанавливается в воинском звании и направляется на работу в сверхсекретный Московский научно-исследовательский институт ВВС. Судьба снова сводит Валерия со старым другом Анисимовым. Под руководством опального авиаконструктора Поликарпова Чкалов и Анисимов приступают к испытательным полeтам…
5-я серия
Валерия увольняют из Института и снова исключают из рядов Красной Армии. Чкалов полностью переходит в распоряжение Поликарпова. Во время испытания истребителя И-16 возникает внештатная ситуация, однако асу Чкалову удается не допустить трагедию...
6-я серия
После неоправданного геройства во время показательного полета, Чкалова представляют лично Сталину. В беседе Верховный Главнокомандующий ставит жизнь испытателя выше опытного образца самолета. Валерий Павлович становится "звездой", получает новую квартиру. Но самый главный подарок преподносит Ольга – у летчика рождается дочь.
7-я серия
Чкалов, Байдуков и Беляков усиленно готовятся к полету по "Сталинскому маршруту" Москва - Петропавловск-Камчатский. Перелeт экипажа Чкалова из Москвы на Дальний Восток стартует 20 июля 1936 года. Все 56 часов – от начала полета до посадки на песчаной косе острова Удд в Охотском море - Ольга не находит себе места от волнения…
8-я серия
Обласканный властью Чкалов рвeтся в Испанию сражаться в Гражданской войне против франкистов, но Сталин не желает отпускать своего любимого лeтчика. Валерий Павлович мучается без дела, его тяготит положение придворного. Брак летчика находится на грани распада. Грандиозный перелeт через Северный полюс становится для Чкалова последним шансом вновь обрести семью и самого себя.





   Похожие торренты   Торрент   Размер 
В этой теме нет новых непрочитанных сообщений. Чкалов [01-08 из 08] (2012) DVDRip от Youtracker

16 | 7

4.37 ГБ

В этой теме нет новых непрочитанных сообщений. Чкалов [01-08 из 08] (2012) DVD9 от Youtracker

3 | 1

7.86 ГБ

В этой теме нет новых непрочитанных сообщений. Чкалов [01-08 из 08] (2012) SATRip от Files-x

21 | 6

4.87 ГБ

В этой теме нет новых непрочитанных сообщений. Валерий Чкалов (1941) DVDRip от Youtracker

36 | 5

1.45 ГБ

В этой теме нет новых непрочитанных сообщений. Валерий Чкалов (1941) DVDRip-AVC от Youtracker

9 | 4

1.46 ГБ

В этой теме нет новых непрочитанных сообщений. Чкалов / Крылья [01-08 из 08] (2012) DVB

4 | 3

8.6 ГБ

В этой теме нет новых непрочитанных сообщений. Чкалов [01-08 из 08] (2012) WEB-DL 720p от HitWay

22 | 13

5.7 ГБ




Вы не можете начинать темы
Вы не можете отвечать на сообщения
Вы не можете редактировать свои сообщения
Вы не можете удалять свои сообщения
Вы не можете добавлять вложения

Перейти:  
Для Мосгорсуда, Роскомнадзора и рекламодателей: mosgorsud-torrent[собачка]yandex.ru
 Вход
ppkBB3cker v.2 © 2008-2014 @ PPK
[ Time : 0.045s | 14 Queries | GZIP : Off ]

Торрент трекер RUTOR.IN, Не можете зайти на rutor.org? Какой новый адрес рутор? Какое зеркало рутор? Не работает rutor.org и зеркала? Тогда наш торрент специально для вас. Rutor.in неофициальное зеркало rutor. В случае если у Вас заблокирован rutor или вдруг Вы не можете на него зайти, то Вы без труда сможете скачать бесплатно и без рекламы последние новинки кино, игр, сериалов и прочего у нас, на Rutor.in. Не нужно использовать прокси, чтобы зайти на рутор, достаточно воспользоваться нашим ресурсом. Все новые фильмы, игры, сериалы, книги и музыка за 2013 и 2014 годы через торрент бесплатно. Скачивайте фильмы в хорошем качестве, игры для пк, xbox, playstation без регистрации. У нас вы найдете новые Зарубежные сериалы и Русские сериалы 2013, 2014, 2015 годов. Оставайтесь с нами, качайте любимые фильмы, игры, сериалы, книги и музыку.