img image001 image001 image001 image001 image001 image001 image001 image001 image001 image001 image001 image001 image001 image001 image001

Planets Sun Sun Sun
Статистика раздачи
Автор: Снежана | Размер: 17.5 ГБ | Добавлен: 25 июл 2013
Раздают: 63    Качают: 19
Скачать торрент
Скачать торрент
Описание торрента

СообщениеДобавлено: 25 июл 2013 

#77

Страна: Россия
Год выпуска: 2012
Производство: Кинокомпания "Русское"
Жанр: драма, мелодрама
Продолжительность: 24 х ~ 00:49:00

Режиссёр: Андрей Селиванов

В ролях: Максим Аверин, Ольга Красько, Мария Кожевникова, Дмитрий Миллер, Евгений Галушко, Ольга Павловец, Екатерина Травова, Антон Эльдаров, Алёна Яковлева, Эммануил Виторган, Владимир Жеребцов, Лаура Кеосаян, Андриана Садковская, Александр Сетейкин, Руслан Ягудин, Анна Якунина, Игорь Петрусенко, Денис Давыдов, Серафима Низовская, Анна Кудасова, Юлия Маргулис, Кристина Кучеренко, Ольга Торощина, Андрей Бестужев (Погорельцев), Максим Щёголев, Дмитрий Арбенин, Игорь Мещерин, Владимир Довжик, Марина Могилевская, Андрей Москвичев, Константин Юшкевич, Дарья Егорова, Илья Ловкий, Леонид Тележинский, Виталий Герасимов, Владимир Демидов, Александр Дзюба, Всеволод Макаров, Марина Богатова, Алина Волощук, Ирина Сенотова, Виктор Полторацкий

Описание: Фильм приоткрывает завесу главного института скорой помощи – знаменитого Склифа. Здесь нет времени на долгие раздумья, Склиф – это внеплановые операции, и, чтобы спасти человека, принять верное решение надо здесь и сейчас.
Как никому другому, это удается главному герою, хирургу Брагину. Помимо профессиональных удач, за Брагиным тянется и слава первого ловеласа, благо мужского обаяния ему не занимать.. Видя каждый день жизнь и смерть, Брагин давно утратил сентиментальность и не утруждает себя мыслями о чужих чувствах, «великие страсти» только веселят его...





Исходник: DVB
Качество: SATRip
Формат: AVI
Дополнительно: Раздача рассчитана для записи на четыре диска DVD5 по 6 серий на диск, пэтому битрейт видео у файлов несколько отличается.

Видео: 720x400 (16:9), 25 fps, XviD ~ 2040 kbps avg, 0.283 bit/pixel
Аудио: 48 kHz, AC3, 2 ch, 192.00 kbps
Раздача от:
Общее
Полное имя : Sklif.2012.O.SATRip_[Youtraker]_by_avproh13.avi
Формат : AVI
Формат/Информация : Audio Video Interleave
Размер файла : 781 Мбайт
Продолжительность : 49 м.
Общий поток : 2225 Кбит/сек
Программа кодирования : VirtualDubMod 1.5.10.3 (build 2550/release)
Библиотека кодирования : VirtualDubMod build 2550/release

Видео
Идентификатор : 0
Формат : MPEG-4 Visual
Профиль формата : Advanced Simple@L5
Параметр BVOP формата : 1
Параметр QPel формата : Нет
Параметр GMC формата : Без точки перехода
Параметр матрицы формата : Выборочная
Идентификатор кодека : XVID
Идентификатор кодека/Подсказка : XviD
Продолжительность : 49 м.
Битрейт : 2024 Кбит/сек
Ширина : 720 пикселей
Высота : 400 пикселей
Соотношение сторон : 16:9
Частота кадров : 25,000 кадров/сек
Цветовое пространство : YUV
Субдискретизация насыщенности : 4:2:0
Битовая глубина : 8 бит
Тип развёртки : Прогрессивная
Метод сжатия : С потерями
Бит/(Пиксели*Кадры) : 0.281
Размер потока : 710 Мбайт (91%)
Библиотека кодирования : XviD 65

Аудио
Идентификатор : 1
Формат : AC-3
Формат/Информация : Audio Coding 3
Расширение режима : CM (complete main)
Параметр Endianness формата : Big
Идентификатор кодека : 2000
Продолжительность : 49 м.
Вид битрейта : Постоянный
Битрейт : 192 Кбит/сек
Каналы : 2 канала
Расположение каналов : Front: L R
Частота : 48,0 КГц
Битовая глубина : 16 бит
Метод сжатия : С потерями
Размер потока : 67,4 Мбайт (9%)
Выравнивание : Разделение по промежуткам
Продолжительность промежутка : 40 мс. (1,00 видеокадр)
Время предзагрузки промежутка : 500 мс.



http://rutor.org/torrent/223478/sklif_sklifosovskij-01-24-iz-24-2012-satrip
Автор рипов - _simka_
Главное отличие, это звук, поскольку у оппонента он просто убит: http://screenshotcomparison.com/comparison/150695
Второе небольшое отличие: у оппонента сериал короче на 20 минут, у него 18:17:43, у меня 18:38:10
Сравнение видео:
http://screenshotcomparison.com/comparison/150729
http://screenshotcomparison.com/comparison/150790

В релизе _simka_ встречаются срывы изображения, например, 3-я серия, время 37:39
и на экране появляются реклама и анонсы украинского телеканала, мешающие просмотру. Да и с длительностью серий украинский канал обошелся вольно, сократив их в пользу рекламы.
Мой релиз рассчитан для записи на 4 DVD5, релиз оппонента займет тоже 4 DVD5, но при более низком качестве...



   Похожие торренты   Торрент   Размер 
В этой теме нет новых непрочитанных сообщений. Склиф / Склифосовский [01-24 из 24] (2012) DVDRip-AVC от Youtracker

15 | 9

17.43 ГБ

В этой теме нет новых непрочитанных сообщений. Склиф / Склифосовский [01-24 из 24] (2012) DVDRip от Youtracker

206 | 50

17.47 ГБ

В этой теме нет новых непрочитанных сообщений. Склиф / Склифосовский [01-24 из 24] (2012) 4xDVD9 от Youtracker | лицензия

4 | 2

30.54 ГБ

В этой теме нет новых непрочитанных сообщений. Склифосовский / Склиф [S02] (2012) SATRip от КинозалSAT

270 | 93

12.89 ГБ

В этой теме нет новых непрочитанных сообщений. Склиф / Склифосовский [S02] (2013) SATRip-AVC

346 | 17

13.06 ГБ

В этой теме нет новых непрочитанных сообщений. Склиф / Склифосовский [01-24 из 24] (2012) DVB

2 | 7

45.02 ГБ

В этой теме нет новых непрочитанных сообщений. Склиф / Склифосовский [01-24 из 24] (2012) HDTVRip от Files-x

351 | 205

14.54 ГБ




Вы не можете начинать темы
Вы не можете отвечать на сообщения
Вы не можете редактировать свои сообщения
Вы не можете удалять свои сообщения
Вы не можете добавлять вложения

Перейти:  
Для Мосгорсуда, Роскомнадзора и рекламодателей: mosgorsud-torrent[собачка]yandex.ru
 Вход
ppkBB3cker v.2 © 2008-2014 @ PPK
[ Time : 0.053s | 16 Queries | GZIP : Off ]

Торрент трекер RUTOR.IN, Не можете зайти на rutor.org? Какой новый адрес рутор? Какое зеркало рутор? Не работает rutor.org и зеркала? Тогда наш торрент специально для вас. Rutor.in неофициальное зеркало rutor. В случае если у Вас заблокирован rutor или вдруг Вы не можете на него зайти, то Вы без труда сможете скачать бесплатно и без рекламы последние новинки кино, игр, сериалов и прочего у нас, на Rutor.in. Не нужно использовать прокси, чтобы зайти на рутор, достаточно воспользоваться нашим ресурсом. Все новые фильмы, игры, сериалы, книги и музыка за 2013 и 2014 годы через торрент бесплатно. Скачивайте фильмы в хорошем качестве, игры для пк, xbox, playstation без регистрации. У нас вы найдете новые Зарубежные сериалы и Русские сериалы 2013, 2014, 2015 годов. Оставайтесь с нами, качайте любимые фильмы, игры, сериалы, книги и музыку.
cron