img image001 image001 image001 image001 image001 image001 image001 image001 image001 image001 image001 image001 image001 image001 image001

Planets Sun Sun Sun
Статистика раздачи
Автор: Снежана | Размер: 12.56 ГБ | Добавлен: 25 июл 2013
Раздают: 1    Качают: 5
Скачать торрент
Скачать торрент
Описание торрента

СообщениеДобавлено: 25 июл 2013 

#77

Информация о фильме
Название: Новая семейка Аддамс
Оригинальное название: The New Addams Family
Год выхода: 1998-1999
Жанр: черная комедия
Режиссер: Эд Эндерс, Джордж Эршбэймер, Гари Харви...
В ролях: Гленн Таранто, Элли Харви, Броди Смит, Николь Фуджере, Майкл Робердс, Джон ДеСантис, Бетти Филлипс, Стивен Фокс, Пол Добсон, Дэвид Милреа

О фильме:
Аддамсы сильно отличаются от обычных заурядных семей. Да, они странные и немного чокнутые, но в тоже время такие трогательные.


Страна: Канада
Студия: Saban Entertainment
Продолжительность: ~ 0:21:26 x 65
Перевод: Дубляж + субтитры в не переведенных местах

Файл
Кодек: XviD
Качество: DVDRip
Видео: 1140 Кбит/с, 696x520, 25.000 кадр/с
Звук: MPЗ, 2 ch, 128 Кбит/с
Субтитры: Русские (forced) - не переведенные места
Доп. инфо: Это ремукс из avi в mkv раздачи Alexey17 с рутрекера, удален английский трек, чтоб влезло на три болванки. Протестировано на железке LG BD390 и в KMPlayer. На вопрос "зачем я так сделал?" отвечаю - там субтитры в UTF-8, тестировал на железках Philips DVP3040K и LG DNK855, они эту кодировку не понимают, только CP1251. В общем, я решил, что это лучшее из решений.


Код:
   General
      Unique ID : 239440646855976901787492551890337969230 (0xB4229756CEE42757804014A7F296B44E)
      Complete name : H:VideoÍîâàÿ ñåìåéêà Àääàìñ mkvDVD0115.mkv
      Format : Matroska
      Format version : Version 2
      File size : 198 MiB
      Duration : 21mn 27s
      Overall bit rate : 1 289 Kbps
      Encoded date : UTC 2012-10-11 10:50:00
      Writing application : mkvmerge v3.4.0 ('Rapunzel') ñáîðêà îò May 15 2010 09:38:20
      Writing library : libebml v0.8.0 + libmatroska v0.9.0
   Video #1
      ID : 1
      Format : MPEG-4 Visual
      Format profile : Advanced Simple@L5
      Format settings, BVOP : Yes
      Format settings, QPel : No
      Format settings, GMC : No warppoints
      Format settings, Matrix : Default (MPEG)
      Codec ID : XVID
      Codec ID/Hint : XviD
      Duration : 21mn 27s
      Bit rate : 1 135 Kbps
      Width : 696 pixels
      Height : 520 pixels
      Display aspect ratio : 4:3
      Frame rate : 25.000 fps
      Color space : YUV
      Chroma subsampling : 4:2:0
      Bit depth : 8 bits
      Scan type : Progressive
      Compression mode : Lossy
      Bits/(Pixel*Frame) : 0.125
      Stream size : 174 MiB (88%)
      Title : 15 Morticia's Romance (part 2)
      Writing library : XviD 1.2.1 (UTC 2008-12-04)
      Default : Yes
      Forced : No
   Audio #2
      ID : 2
      Format : MPEG Audio
      Format version : Version 1
      Format profile : Layer 3
      Mode : Joint stereo
      Mode extension : MS Stereo
      Codec ID : A_MPEG/L3
      Codec ID/Hint : MP3
      Duration : 21mn 27s
      Bit rate mode : Constant
      Bit rate : 128 Kbps
      Channel(s) : 2 channels
      Sampling rate : 48.0 KHz
      Compression mode : Lossy
      Stream size : 19.7 MiB (10%)
      Title : Russian
      Language : Russian
      Default : Yes
      Forced : No
   Text #3
      ID : 3
      Format : UTF-8
      Codec ID : S_TEXT/UTF8
      Codec ID/Info : UTF-8 Plain Text
      Title : Russian
      Language : Russian
      Default : Yes
      Forced : Yes



   Похожие торренты   Торрент   Размер 
В этой теме нет новых непрочитанных сообщений. Семейка Аддамс / The Addams Family [S01-02] (1964-1965) DVDRip

63 | 12

15.65 ГБ

В этой теме нет новых непрочитанных сообщений. Семейка Аддамс / The Addams Family (1991) HDRip от Scarabey | P

87 | 4

745.43 МБ

В этой теме нет новых непрочитанных сообщений. Семейка Аддамс / The Addams Family (1991) HDTVRip от Scarabey | P

28 | 8

743.59 МБ

В этой теме нет новых непрочитанных сообщений. Семейка Аддамс / The Addams Family (1991) BDRip от HQCLUB

211 | 36

1.45 ГБ

В этой теме нет новых непрочитанных сообщений. Семейка Аддамс / The Addams Family (1991) BDRip от New-Team | P

102 | 10

1.46 ГБ

В этой теме нет новых непрочитанных сообщений. Семейка Аддамс / The Addams Family (1991) BDRip-AVC от MediaClub | P, A

121 | 7

3.52 ГБ

В этой теме нет новых непрочитанных сообщений. Семейка Аддамс / The Addams Family (1991) HDTVRip Sauliux




Вы не можете начинать темы
Вы не можете отвечать на сообщения
Вы не можете редактировать свои сообщения
Вы не можете удалять свои сообщения
Вы не можете добавлять вложения

Перейти:  
Для Мосгорсуда, Роскомнадзора и рекламодателей: mosgorsud-torrent[собачка]yandex.ru
 Вход
ppkBB3cker v.2 © 2008-2014 @ PPK
[ Time : 0.050s | 15 Queries | GZIP : Off ]

Торрент трекер RUTOR.IN, Не можете зайти на rutor.org? Какой новый адрес рутор? Какое зеркало рутор? Не работает rutor.org и зеркала? Тогда наш торрент специально для вас. Rutor.in неофициальное зеркало rutor. В случае если у Вас заблокирован rutor или вдруг Вы не можете на него зайти, то Вы без труда сможете скачать бесплатно и без рекламы последние новинки кино, игр, сериалов и прочего у нас, на Rutor.in. Не нужно использовать прокси, чтобы зайти на рутор, достаточно воспользоваться нашим ресурсом. Все новые фильмы, игры, сериалы, книги и музыка за 2013 и 2014 годы через торрент бесплатно. Скачивайте фильмы в хорошем качестве, игры для пк, xbox, playstation без регистрации. У нас вы найдете новые Зарубежные сериалы и Русские сериалы 2013, 2014, 2015 годов. Оставайтесь с нами, качайте любимые фильмы, игры, сериалы, книги и музыку.
cron