img image001 image001 image001 image001 image001 image001 image001 image001 image001 image001 image001 image001 image001 image001 image001

Planets Sun Sun Sun
Статистика раздачи
Автор: Снежана | Размер: 7.14 ГБ | Добавлен: 25 июл 2013
Раздают: 6    Качают: 7
Скачать торрент
Скачать торрент
Описание торрента

СообщениеДобавлено: 25 июл 2013 

Год выпуска: 2012
Страна: США
Студия: Sony Pictures Television Inc.
Жанр: ситком
Продолжительность: ~22 мин.
Перевод: Многоголосый закадровый - [Несмертельное оружие]
Русские субтитры: нет
Режиссёр: Марк Сендроуски / Mark Cendrowski

В ролях: Дэнни Мастерсон, Джеймс Лежер, Майкл Кэссиди, Адам Буш, Мередит Хагнер, Эми Смарт, Норин ДеВулф, Джулиан Морри,с Стефани Николь Лемелин, Метте Холт, Доминик Девор, Эмили Фокслер, Памела Мари, Майкл Дидрикссон, Мелисса Клер Иган, Нора Киркпатрик и др.

Описание: Главные персонажи сериала — работающий в престижном журнале парень по имени Майло и трое его друзей — Нил, Гиббс и Тайлер. После того, как Майло бросила девушка, они помогают ему справиться с депрессией и обрести уверенность в себе; правда, у самих друзей в личной жизни при этом тоже не все гладко.



Релиз от:
СЭМПЛ!

Качество: WEB-DL 720p
Формат: MKV
Видео кодек: H.264
Аудио кодек: AC3
Видео: 1280x720 (16:9), 23.976 fps, MPEG4 Video (H264) ~4077 Kbps, 0.185 bit/pixel
Аудио #1: 48 kHz, AC3 Dolby Digital, 3/2 (L,C,R,l,r) + LFE ch, ~384.00 kbps avg | Russian | MVO
Аудио #2: 48 kHz, AC3 Dolby Digital, 3/2 (L,C,R,l,r) + LFE ch, ~384.00 kbps avg | English | Original
General
Unique ID : 174027214462769903003600984027609957678 (0x82EC6C1EF27320179E63D55406EC052E)
Complete name : Men.At.Work.S01E01.Pilot.WEB-DL.720p.H.264.RUS.-Nesmertelnoe.oruzhie.mkv
Format : Matroska
Format version : Version 2
File size : 757 MiB
Duration : 21mn 24s
Overall bit rate : 4 944 Kbps
Movie name : Мужики за работой / Сезон: 1 / Эпизод: 01 - Пилот / Релиз от: Несмертельное оружие
Encoded date : UTC 2012-06-03 13:39:22
Writing application : mkvmerge v5.2.1 ('A Far Off Place') built on Jan 2 2012 23:21:10
Writing library : libebml v1.2.3 + libmatroska v1.3.0
Video
ID : 1
Format : AVC
Format/Info : Advanced Video Codec
Format profile : High@L3.1
Format settings, CABAC : No
Format settings, ReFrames : 2 frames
Codec ID : V_MPEG4/ISO/AVC
Duration : 21mn 24s
Bit rate : 4 077 Kbps
Width : 1 280 pixels
Height : 720 pixels
Display aspect ratio : 16:9
Frame rate : 23.976 fps
Color space : YUV
Chroma subsampling : 4:2:0
Bit depth : 8 bits
Scan type : Progressive
Bits/(Pixel*Frame) : 0.185
Stream size : 624 MiB (82%)
Language : English
Default : Yes
Forced : No
Color primaries : BT.709-5, BT.1361, IEC 61966-2-4, SMPTE RP177
Transfer characteristics : BT.709-5, BT.1361
Matrix coefficients : BT.709-5, BT.1361, IEC 61966-2-4 709, SMPTE RP177
Audio #1
ID : 2
Format : AC-3
Format/Info : Audio Coding 3
Mode extension : CM (complete main)
Codec ID : A_AC3
Duration : 21mn 24s
Bit rate mode : Constant
Bit rate : 384 Kbps
Channel(s) : 6 channels
Channel positions : Front: L C R, Side: L R, LFE
Sampling rate : 48.0 KHz
Bit depth : 16 bits
Compression mode : Lossy
Stream size : 58.8 MiB (8%)
Title : MVO (Несмертельное оружие)
Language : Russian
Default : Yes
Forced : No
Audio #2
ID : 3
Format : AC-3
Format/Info : Audio Coding 3
Mode extension : CM (complete main)
Codec ID : A_AC3
Duration : 21mn 24s
Bit rate mode : Constant
Bit rate : 384 Kbps
Channel(s) : 6 channels
Channel positions : Front: L C R, Side: L R, LFE
Sampling rate : 48.0 KHz
Bit depth : 16 bits
Compression mode : Lossy
Stream size : 58.8 MiB (8%)
Title : Original
Language : English
Default : No
Forced : No
Внимание! Раздача ведётся путём добавления новых серий; при каждом добавлении создётся новый торрент. Чтобы начать докачку новой серии, пользователям необходимо сделать следующее:
(1) остановить скачивание,
(2) удалить старый торрент у себя из клиента (старые серии удалять не надо),
(3) скачать новый торрент и запустить его у себя в клиенте вместо старого, при этом указать клиенту путь в старую папку куда и должно происходить скачивание новых серий.
Ваш клиент при этом должен произвести хеширование (проверку) старой папки (если не производит сам - помогите ему сделать это), и будет докачивать только те серии которых у вас ещё нет. Старые серии при этом не удаляются, а продолжают раздаваться!
Eсли вы уже удалили старые серии, то предотвратить повторную закачку старых серий можно, отжав галочку в соответсвующих местах при запуске нового торрента. По возможности, желательно не удалять старые серии как можно дольше чтобы релизёр не столько продолжал раздавать старые серии, а смог сконцентрироваться на новых.



   Похожие торренты   Торрент   Размер 
В этой теме нет новых непрочитанных сообщений. Мужики за работой / Men at Work [S01] (2012) WEB-DLRip | L

11 | 2

1.96 ГБ

В этой теме нет новых непрочитанных сообщений. Мужики за работой / Men at Work [S02] (2013) WEB-DL 720p

37 | 5

7.23 ГБ

В этой теме нет новых непрочитанных сообщений. Мужики за работой / Men at Work [02x01-08 из 10] (2013) WEB-DL 720p

2 | 5

5.66 ГБ

В этой теме нет новых непрочитанных сообщений. Мужики за работой / Men at Work [S02] (2013) WEB-DLRip

55 | 11

3.42 ГБ

В этой теме нет новых непрочитанных сообщений. Мужики за работой / Men at Work [02x01-08 из 10] (2013) WEB-DLRip

9 | 5

2.73 ГБ

В этой теме нет новых непрочитанных сообщений. Мужчины за работой / Men at Work (1990) BDRip 720p | P, A

104 | 11

3.64 ГБ

В этой теме нет новых непрочитанных сообщений. Мужчины за работой / Men at Work (1990) BDRip-AVC | P, A

229 | 27

1.46 ГБ




Вы не можете начинать темы
Вы не можете отвечать на сообщения
Вы не можете редактировать свои сообщения
Вы не можете удалять свои сообщения
Вы не можете добавлять вложения

Перейти:  
Для Мосгорсуда, Роскомнадзора и рекламодателей: mosgorsud-torrent[собачка]yandex.ru
 Вход
ppkBB3cker v.2 © 2008-2014 @ PPK
[ Time : 0.061s | 15 Queries | GZIP : Off ]

Торрент трекер RUTOR.IN, Не можете зайти на rutor.org? Какой новый адрес рутор? Какое зеркало рутор? Не работает rutor.org и зеркала? Тогда наш торрент специально для вас. Rutor.in неофициальное зеркало rutor. В случае если у Вас заблокирован rutor или вдруг Вы не можете на него зайти, то Вы без труда сможете скачать бесплатно и без рекламы последние новинки кино, игр, сериалов и прочего у нас, на Rutor.in. Не нужно использовать прокси, чтобы зайти на рутор, достаточно воспользоваться нашим ресурсом. Все новые фильмы, игры, сериалы, книги и музыка за 2013 и 2014 годы через торрент бесплатно. Скачивайте фильмы в хорошем качестве, игры для пк, xbox, playstation без регистрации. У нас вы найдете новые Зарубежные сериалы и Русские сериалы 2013, 2014, 2015 годов. Оставайтесь с нами, качайте любимые фильмы, игры, сериалы, книги и музыку.