img image001 image001 image001 image001 image001 image001 image001 image001 image001 image001 image001 image001 image001 image001 image001

Planets Sun Sun Sun
Статистика раздачи
Автор: Снежана | Размер: 3.97 ГБ | Добавлен: 25 июл 2013
Раздают: 10    Качают: 7
Скачать торрент
Скачать торрент
Описание торрента

СообщениеДобавлено: 25 июл 2013 

#77

Информация о фильме
Название: В Филадельфии всегда солнечно
Оригинальное название: It's Always Sunny in Philadelphia

07х01:: Красотка Фрэнка(Frank's Pretty Woman)
07х02:: Шайка едет в Джерси Шор (The Gang Goes to the Jersey Shore)
07х03:: Юные красавицы Фрэнка Рэйнольдса (Frank Reynolds' Little Beauties)
07х04:: Как милашка Ди влипла под аудит (Sweet Dee Gets Audited)
07х05:: Брат Фрэнка(Frank's Brother)
07х06:: Шторм столетия (The Storm of the Century)
07х07:: ЧарДи-МакДеннис - игра игр (Chardee MacDennis: The Game of Games)
07х08:: Анти-социальная сеть(The Anti-Social Network)
07х09:: Шайка в западне (The Gang Gets Trapped)
07х10: Как разжирел Мак (How Mac Got Fat)
07х11: Громобойный экспресс (Thunder Gun Express)
07х12: Встреча выпускников (The High School Reunion)
07х13: Встреча выпускников. Часть 2: Месть шайки (The High School Reunion Part 2: The Gang's Revenge)

Год выхода: 2012
Жанр: ситком
Режиссер: Мэтт Шекман, Фред Сэвидж, Рэндолл Эйнхорн
В ролях: Чарли Дэй, Гленн Хоуертон, Роб МакЭлхенни, Кэйтлин Олсен, Дэнни ДеВито, Мэри Элизабет Эллис, Дэвид Хорнсби, Артемис Пебдани, Линн Мари Стюарт, Сэнди Мартин

О фильме:
Комедийный сериал Роба МакЭлхенни повествует о четырех молодых друзьях - владельцах ирландского паба в депрессивном районе Филадельфии. Бизнес у ребят идет не слишком успешно, но это не мешает им регулярно находить приключения на отдельные части своего тела.

Главные герои ситкома - Мак, Чарли, Деннис и Ди - аморальны, беспринципны, неполиткорректны и готовы врать напропалую ради достижения собственных целей. К тому же постоянно "воюют" друг с другом. Впрочем, в большинстве случаев эти качества не приводят их ни к чему хорошему. В результате вся "шайка" регулярно попадает в самые нелепейшие ситуации. Одну из главных ролей в сериале исполнил Денни ДеВито.
Официальный сайт

Страна: США
Продолжительность: ~00:20:00
Перевод: Профессиональный, многоголосый закадровый (LostFilm)

Файл
Кодек: Xvid
Качество: WEB-DLRip
Видео: Xvid 720x400 23.976fps 1915kbps
Звук: MPEG Audio Layer 3 48000Hz stereo 128kbps
Субтитры: нет

General
Format : AVI
Format/Info : Audio Video Interleave
Overall bit rate : 2 049 Kbps
Writing application : VirtualDubMod 1.5.10.1 (build 2366/release)
Writing library : VirtualDubMod build 2366/release

Video
ID : 0
Format : MPEG-4 Visual
Format profile : Simple@L3
Format settings, BVOP : No
Format settings, QPel : No
Format settings, GMC : No warppoints
Format settings, Matrix : Default (H.263)
Codec ID : XVID
Codec ID/Hint : XviD
Bit rate : 1 912 Kbps
Width : 720 pixels
Height : 400 pixels
Display aspect ratio : 16:9
Frame rate : 23.976 fps
Color space : YUV
Chroma subsampling : 4:2:0
Bit depth : 8 bits
Scan type : Progressive
Compression mode : Lossy
Bits/(Pixel*Frame) : 0.277
Stream size : 282 MiB (93%)
Writing library : XviD 1.2.1 (UTC 2008-12-04)

Audio
ID : 1
Format : MPEG Audio
Format version : Version 1
Format profile : Layer 3
Mode : Joint stereo
Mode extension : MS Stereo
Codec ID : 55
Codec ID/Hint : MP3
Bit rate mode : Constant
Bit rate : 128 Kbps
Channel(s) : 2 channels
Sampling rate : 48.0 KHz
Compression mode : Lossy
Stream size : 18.9 MiB (6%)
Alignment : Aligned on interleaves
Interleave, duration : 42 ms (1.00 video frame)
Interleave, preload duration : 504 ms

,,,,,,,,



   Похожие торренты   Торрент   Размер 
В этой теме нет новых непрочитанных сообщений. В Филадельфии всегда солнечно / It's Always Sunny in Philadelphia [S08] (2012) WEB-DLRip | LostFilm

1 | 3

3.25 ГБ

В этой теме нет новых непрочитанных сообщений. В Филадельфии всегда солнечно / It's Always Sunny in Philadelphia [S06] (2010) WEB-DLRip | P LostFilm

7 | 3

4.2 ГБ

В этой теме нет новых непрочитанных сообщений. В Филадельфии всегда солнечно / It's Always Sunny in Philadelphia [S12] (2017) WEB-DLRip | LostFilm

35 | 30

3.13 ГБ

В этой теме нет новых непрочитанных сообщений. В Филадельфии всегда солнечно / It's Always Sunny in Philadelphia [S05] (2009) WEB-DLRip | LostFilm

0 | 23

4.05 ГБ

В этой теме нет новых непрочитанных сообщений. В Филадельфии всегда солнечно / It's Always Sunny in Philadelphia [05x01-08] (2009) WEB-DLRip | LostFilm

0 | 2

2.51 ГБ

В этой теме нет новых непрочитанных сообщений. В Филадельфии всегда солнечно / It's Always Sunny in Philadelphia [11х01 из 10] (2016) WEB-DLRip | LostFilm

99 | 10

312.78 МБ

В этой теме нет новых непрочитанных сообщений. В Филадельфии всегда солнечно / It's Always Sunny in Philadelphia [11х01 из 10] (2016) WEB-DLRip | КПК | LostFilm

9 | 2

93.5 МБ




Вы не можете начинать темы
Вы не можете отвечать на сообщения
Вы не можете редактировать свои сообщения
Вы не можете удалять свои сообщения
Вы не можете добавлять вложения

Перейти:  
Для Мосгорсуда, Роскомнадзора и рекламодателей: mosgorsud-torrent[собачка]yandex.ru
 Вход
ppkBB3cker v.2 © 2008-2014 @ PPK
[ Time : 0.067s | 14 Queries | GZIP : Off ]

Торрент трекер RUTOR.IN, Не можете зайти на rutor.org? Какой новый адрес рутор? Какое зеркало рутор? Не работает rutor.org и зеркала? Тогда наш торрент специально для вас. Rutor.in неофициальное зеркало rutor. В случае если у Вас заблокирован rutor или вдруг Вы не можете на него зайти, то Вы без труда сможете скачать бесплатно и без рекламы последние новинки кино, игр, сериалов и прочего у нас, на Rutor.in. Не нужно использовать прокси, чтобы зайти на рутор, достаточно воспользоваться нашим ресурсом. Все новые фильмы, игры, сериалы, книги и музыка за 2013 и 2014 годы через торрент бесплатно. Скачивайте фильмы в хорошем качестве, игры для пк, xbox, playstation без регистрации. У нас вы найдете новые Зарубежные сериалы и Русские сериалы 2013, 2014, 2015 годов. Оставайтесь с нами, качайте любимые фильмы, игры, сериалы, книги и музыку.