img image001 image001 image001 image001 image001 image001 image001 image001 image001 image001 image001 image001 image001 image001 image001

Planets Sun Sun Sun
Статистика раздачи
Автор: Снежана | Размер: 4.77 ГБ | Добавлен: 25 июл 2013
Раздают: 119    Качают: 40
Скачать торрент
Скачать торрент
Описание торрента

СообщениеДобавлено: 25 июл 2013 


Год выпуска: 2007-2008
Страна: США
Жанр: боевик, драма
Продолжительность: 13 эпизодов по ~44 минуты
Перевод: Полное дублирование |REN-TV|
Русские субтитры: нет
Субтитры: английские
Режиссёр: Пол Шойринг / Paul Scheuring
В ролях: Доминик Пурселл, Вентворт Миллер, Амори Ноласко, Роберт Нэппер, Сара Уэйн Кэллис, Уэйд Уильямс, Уильям Фихтнер, Пол Адельштейн, Маршалл Эллман, Рокмонд Данбар и др.
Описание: По сфабрикованному обвинению Майкл попадает в панамскую тюрьму Сонна — зону, где после бунта заключенных больше не осталось надзирателей, а за порядком следит могущественный наркобарон. Как выяснилось, Компания хочет, чтобы Скофилд организовал побег для таинственного Джеймса Вистлера — рыбака, чья свобода важна настолько, что в заложниках у правительства оказываются Сара и Эл Джей. На разработку плана и претворения его в жизнь Майклу отведена всего неделя.
Rip By: _Flash
Сэмпл: Сэмпл
Качество: HDRip
Формат: AVI
Видео кодек: XviD
Аудио кодек: MP3
Видео: XviD, 720x400(16:9), 23.976 fps, 1063 Kbps
Аудио: MP3, 48 kHz; 2 ch; 128 kbps

General
Complete name : D:Docume and SettingsAdminРабочий столPrison.Break.Season.3.HDRip_By_ FlashPrison Break 02.avi
Format : AVI
Format/Info : Audio Video Interleave
File size : 377 MiB
Duration : 43mn 53s
Overall bit rate : 1 201 Kbps
Writing application : VirtualDubMod 1.5.10.3 | www.virtualdub-fr.org || (build 2550/release)
Writing library : VirtualDubMod build 2550/release
Video
ID : 0
Format : MPEG-4 Visual
Format profile : Advanced Simple@L5
Format settings, BVOP : 1
Format settings, QPel : No
Format settings, GMC : No warppoints
Format settings, Matrix : Custom
Codec ID : XVID
Codec ID/Hint : XviD
Duration : 43mn 53s
Bit rate : 1 063 Kbps
Width : 720 pixels
Height : 400 pixels
Display aspect ratio : 16:9
Frame rate : 23.976 fps
Color space : YUV
Chroma subsampling : 4:2:0
Bit depth : 8 bits
Scan type : Progressive
Compression mode : Lossy
Bits/(Pixel*Frame) : 0.154
Stream size : 334 MiB (89%)
Writing library : XviD 64
Audio
ID : 1
Format : MPEG Audio
Format version : Version 1
Format profile : Layer 3
Codec ID : 55
Codec ID/Hint : MP3
Duration : 43mn 53s
Bit rate mode : Constant
Bit rate : 128 Kbps
Channel(s) : 2 channels
Sampling rate : 48.0 KHz
Compression mode : Lossy
Stream size : 40.2 MiB (11%)
Alignment : Aligned on interleaves
Interleave, duration : 42 ms (1.00 video frame)
Interleave, preload duration : 504 ms
Writing library : L3.99r
Encoding settings : -m s -V 4 -q 2 -lowpass 17 -b 128






   Похожие торренты   Торрент   Размер 
В этой теме нет новых непрочитанных сообщений. Побег из тюрьмы / Prison Break [S03] (2007-2008) BDRip 720p от Youtracker | Ren-tv

102 | 11

18.71 ГБ

В этой теме нет новых непрочитанных сообщений. Побег из тюрьмы / Prison Break [S02] (2006-2007) BDRip 720p от Youtracker | Ren-tv

84 | 22

31.66 ГБ

В этой теме нет новых непрочитанных сообщений. Побег / Побег из тюрьмы / Prison Break [S03] (2007) НDRip от Scarabey | Ren-tv

433 | 113

9.5 ГБ

В этой теме нет новых непрочитанных сообщений. Побег / Побег из тюрьмы / Prison Break [S04] (2008) НDRip от Scarabey | C. P. И.

436 | 173

16.27 ГБ

В этой теме нет новых непрочитанных сообщений. Побег из тюрьмы / Prison Break [S01] (2005-2006) BDRip 720p от Youtracker | Ren-tv

50 | 51

31.67 ГБ

В этой теме нет новых непрочитанных сообщений. Побег из тюрьмы: Финальный побег / Prison Break: The Final Break (2009) BDRip 720p от NOLIMITS-TEAM

67 | 30

2.26 ГБ

В этой теме нет новых непрочитанных сообщений. Побег из тюрьмы / Prison Break [S4] (2008) HDTVRip by LGFs

41 | 8

5.48 ГБ




Вы не можете начинать темы
Вы не можете отвечать на сообщения
Вы не можете редактировать свои сообщения
Вы не можете удалять свои сообщения
Вы не можете добавлять вложения

Перейти:  
Для Мосгорсуда, Роскомнадзора и рекламодателей: mosgorsud-torrent[собачка]yandex.ru
 Вход
ppkBB3cker v.2 © 2008-2014 @ PPK
[ Time : 0.063s | 15 Queries | GZIP : Off ]

cron