img image001 image001 image001 image001 image001 image001 image001 image001 image001 image001 image001 image001 image001 image001 image001

Planets Sun Sun Sun
Статистика раздачи
Автор: Снежана | Размер: 8.41 ГБ | Добавлен: 25 июл 2013
Раздают: 11    Качают: 5
Скачать торрент
Скачать торрент
Описание торрента

СообщениеДобавлено: 25 июл 2013 

#77

Страна: Россия
Год выпуска: 2012

Жанр: драма, военный

Продолжительность: 6 х ~ 01:20:00 (по две серии в файле)

Перевод: Не требуется
Cубтитры: нет
Оригинальная аудиодорожка: русский

Режиссер: Сергей Урсуляк

В ролях: Сергей Маковецкий, Анна Михалкова, Александр Никольский, Александр Балуев, Антон Кузнецов, Лика Нифонтова, Никита Тезин, Евгений Дятлов, Полина Агуреева, Софья Райзман...

Описание: Сюжет разворачивается в 1942—1943 годы, в период обороны Сталинграда. Еврей Виктор Штрум — талантливый физик-ядерщик, работающий в одном из институтов страны над созданием атомной бомбы. В это время близкие Штрума погибают в гитлеровских лагерях и застенках НКВД, на него самого начинаются гонения. Изобретателя может спасти только его научное детище, которым заинтересовался сам Сталин. Государству нужно такое мощное оружие, как атомная бомба. Ученому предстоит сделать выбор: остаться верным науке и работать на «вождя нации» или отказаться от своего призвания и быть уничтоженным.





Источник: 2 x (DVD9 + DVD5) R5
Качество видео: DVDRip-AVC
Формат видео: MKV

Видео файлов 1 - 3: 720x404@768x404 (1.913:1), 25 fps, H264 ~ 2390 kbps avg, 0.329 bit/pixel
Видео файлов 4 - 6: 720x432@776x432 (16:9), 25 fps, H264 ~ 2390 kbps avg, 0.307 bit/pixel
Аудио: 48 kHz, AC3, 2 ch, 192.00 kbps Русский
Примечание: релиз расчитан для записи на два диска DVD5, по 3 файла на диск.

Раздача от:

Общее
Полное имя : Zhizn.i.sudba.2012.O.DVDRip-AVC_[Youtracker]_by_avprohFilm1.mkv
Формат : Matroska
Версия формата : Version 2
Размер файла : 1,47 Гбайт
Продолжительность : 1 ч. 21 м.
Общий поток : 2583 Кбит/сек
Дата кодирования : UTC 2012-11-15 08:45:51
Программа кодирования : mkvmerge v5.0.1 ('Es ist Sommer') built on Nov 6 2011 16:23:40
Библиотека кодирования : libebml v1.2.2 + libmatroska v1.3.0

Видео
Идентификатор : 1
Формат : AVC
Формат/Информация : Advanced Video Codec
Профиль формата : High@L4.1
Параметр CABAC формата : Да
Параметр ReFrames формата : 11 кадров
Идентификатор кодека : V_MPEG4/ISO/AVC
Продолжительность : 1 ч. 21 м.
Битрейт : 2390 Кбит/сек
Ширина : 720 пикселей
Высота : 404 пикселя
Соотношение сторон : 1,896
Частота кадров : 25,000 кадров/сек
Цветовое пространство : YUV
Субдискретизация насыщенности : 4:2:0
Битовая глубина : 8 бит
Тип развёртки : Прогрессивная
Бит/(Пиксели*Кадры) : 0.329
Размер потока : 1,33 Гбайт (91%)
Библиотека кодирования : x264 core 119 r2106 07efeb4
Настройки программы : cabac=1 / ref=11 / deblock=1:-2:-1 / analyse=0x3:0x113 / me=umh / subme=9 / psy=1 / psy_rd=1.00:0.20 / mixed_ref=1 / me_range=32 / chroma_me=1 / trellis=1 / 8x8dct=1 / cqm=0 / deadzone=21,11 / fast_pskip=0 / chroma_qp_offset=-3 / threads=9 / sliced_threads=0 / nr=0 / decimate=0 / interlaced=0 / bluray_compat=0 / constrained_intra=0 / bframes=8 / b_pyramid=2 / b_adapt=2 / b_bias=0 / direct=3 / weightb=1 / open_gop=0 / weightp=2 / keyint=250 / keyint_min=25 / scenecut=40 / intra_refresh=0 / rc_lookahead=60 / rc=2pass / mbtree=1 / bitrate=2390 / ratetol=1.0 / qcomp=0.60 / qpmin=0 / qpmax=69 / qpstep=4 / cplxblur=20.0 / qblur=0.5 / ip_ratio=1.40 / aq=1:1.00
Default : Да
Forced : Нет

Аудио
Идентификатор : 2
Формат : AC-3
Формат/Информация : Audio Coding 3
Профиль формата : Dolby Digital
Расширение режима : CM (complete main)
Параметр Endianness формата : Big
Идентификатор кодека : A_AC3
Продолжительность : 1 ч. 21 м.
Вид битрейта : Постоянный
Битрейт : 192 Кбит/сек
Каналы : 2 канала
Расположение каналов : Front: L R
Частота : 48,0 КГц
Битовая глубина : 16 бит
Метод сжатия : С потерями
Размер потока : 112 Мбайт (7%)
Default : Да
Forced : Нет

Общее
Полное имя : Zhizn.i.sudba.2012.O.DVDRip-AVC_[Youtracker]_by_avprohFilm4.mkv
Формат : Matroska
Версия формата : Version 2
Размер файла : 1,31 Гбайт
Продолжительность : 1 ч. 12 м.
Общий поток : 2582 Кбит/сек
Дата кодирования : UTC 2012-11-14 19:58:43
Программа кодирования : mkvmerge v5.0.1 ('Es ist Sommer') built on Nov 6 2011 16:23:40
Библиотека кодирования : libebml v1.2.2 + libmatroska v1.3.0

Видео
Идентификатор : 1
Формат : AVC
Формат/Информация : Advanced Video Codec
Профиль формата : High@L4.1
Параметр CABAC формата : Да
Параметр ReFrames формата : 11 кадров
Идентификатор кодека : V_MPEG4/ISO/AVC
Продолжительность : 1 ч. 12 м.
Битрейт : 2390 Кбит/сек
Ширина : 720 пикселей
Высота : 432 пикселя
Соотношение сторон : 16:9
Частота кадров : 25,000 кадров/сек
Цветовое пространство : YUV
Субдискретизация насыщенности : 4:2:0
Битовая глубина : 8 бит
Тип развёртки : Прогрессивная
Бит/(Пиксели*Кадры) : 0.307
Размер потока : 1,19 Гбайт (91%)
Библиотека кодирования : x264 core 119 r2106 07efeb4
Настройки программы : cabac=1 / ref=11 / deblock=1:-2:-1 / analyse=0x3:0x113 / me=umh / subme=9 / psy=1 / psy_rd=1.00:0.20 / mixed_ref=1 / me_range=32 / chroma_me=1 / trellis=1 / 8x8dct=1 / cqm=0 / deadzone=21,11 / fast_pskip=0 / chroma_qp_offset=-3 / threads=6 / sliced_threads=0 / nr=0 / decimate=0 / interlaced=0 / bluray_compat=0 / constrained_intra=0 / bframes=8 / b_pyramid=2 / b_adapt=2 / b_bias=0 / direct=3 / weightb=1 / open_gop=0 / weightp=2 / keyint=250 / keyint_min=25 / scenecut=40 / intra_refresh=0 / rc_lookahead=60 / rc=2pass / mbtree=1 / bitrate=2390 / ratetol=1.0 / qcomp=0.60 / qpmin=0 / qpmax=69 / qpstep=4 / cplxblur=20.0 / qblur=0.5 / ip_ratio=1.40 / aq=1:1.00
Default : Да
Forced : Нет

Аудио
Идентификатор : 2
Формат : AC-3
Формат/Информация : Audio Coding 3
Расширение режима : CM (complete main)
Параметр Endianness формата : Big
Идентификатор кодека : A_AC3
Продолжительность : 1 ч. 12 м.
Вид битрейта : Постоянный
Битрейт : 192 Кбит/сек
Каналы : 2 канала
Расположение каналов : Front: L R
Частота : 48,0 КГц
Битовая глубина : 16 бит
Метод сжатия : С потерями
Размер потока : 99,9 Мбайт (7%)
Default : Да
Forced : Нет







   Похожие торренты   Торрент   Размер 
В этой теме нет новых непрочитанных сообщений. Жизнь и судьба [01-12 из 12] (2012) DVDRip от Youtracker | лицензия

49 | 6

8.45 ГБ

В этой теме нет новых непрочитанных сообщений. Жизнь и судьба [01-12 из 12] (2012) 2x(DVD9+DVD5) R5 от Youtracker | лицензия

4 | 3

23.75 ГБ

В этой теме нет новых непрочитанных сообщений. Жизнь и судьба [01-12 из 12] (2012) DVB

22 | 6

18.73 ГБ

В этой теме нет новых непрочитанных сообщений. Жизнь и судьба [01-12 из 12] (2012) HDTVRip от New-Team

235 | 69

4.37 ГБ

В этой теме нет новых непрочитанных сообщений. Жизнь и судьба [01-06 из 06] (2012) HDTV 1080i

32 | 17

27.49 ГБ

В этой теме нет новых непрочитанных сообщений. Жизнь и судьба [01-12 из 12] (2012) SATRip от КинозалSAT

165 | 49

6.45 ГБ

В этой теме нет новых непрочитанных сообщений. Жизнь и судьба [01-12 из 12] (2012) HDTVRip-AVC от New-Team

131 | 23

7.94 ГБ




Вы не можете начинать темы
Вы не можете отвечать на сообщения
Вы не можете редактировать свои сообщения
Вы не можете удалять свои сообщения
Вы не можете добавлять вложения

Перейти:  
Для Мосгорсуда, Роскомнадзора и рекламодателей: mosgorsud-torrent[собачка]yandex.ru
 Вход
ppkBB3cker v.2 © 2008-2014 @ PPK
[ Time : 0.023s | 16 Queries | GZIP : On ]

Торрент трекер RUTOR.IN, Не можете зайти на rutor.org? Какой новый адрес рутор? Какое зеркало рутор? Не работает rutor.org и зеркала? Тогда наш торрент специально для вас. Rutor.in неофициальное зеркало rutor. В случае если у Вас заблокирован rutor или вдруг Вы не можете на него зайти, то Вы без труда сможете скачать бесплатно и без рекламы последние новинки кино, игр, сериалов и прочего у нас, на Rutor.in. Не нужно использовать прокси, чтобы зайти на рутор, достаточно воспользоваться нашим ресурсом. Все новые фильмы, игры, сериалы, книги и музыка за 2013 и 2014 годы через торрент бесплатно. Скачивайте фильмы в хорошем качестве, игры для пк, xbox, playstation без регистрации. У нас вы найдете новые Зарубежные сериалы и Русские сериалы 2013, 2014, 2015 годов. Оставайтесь с нами, качайте любимые фильмы, игры, сериалы, книги и музыку.