img image001 image001 image001 image001 image001 image001 image001 image001 image001 image001 image001 image001 image001 image001 image001

Planets Sun Sun Sun
Статистика раздачи
Автор: Снежана | Размер: 8.75 ГБ | Добавлен: 25 июл 2013
Раздают: 4620    Качают: 734
Скачать торрент
Скачать торрент
Описание торрента

СообщениеДобавлено: 25 июл 2013 

#77

Страна: Россия
Год выпуска: 2012
Жанр: драма, история

Продолжительность: 12 х ~ 00:52:00

Перевод: Не требуется
Cубтитры: нет
Оригинальная аудиодорожка: русский

Режиссер: Сергей Щербин

В ролях: Сергей Стрельников, Юлия Галкина, Евгения Лютая, Максим Дрозд, Федор Леонов, Софья Хилькова, Дмитрий Щербина, Александр Соколовский, Карина Андоленко, Кирилл Полухин...

Описание: Сериал о малоизвестных деталях биографии легендарного комдива Василия Чапаева — первая любовь в 18 лет и побег из родного села, женитьба и семейная жизнь, Первая мировая война, страстные романы с другими женщинами (дочерью белогвардейского офицера и женой красного комиссара), смертельная вражда, сломанные судьбы и неотвратимая гибель на реке Урал.





Источник: 2 x DVD9 R5
Качество видео: DVDRip
Формат видео: AVI

Видео: 720x400 (16:9), 25 fps, XViD ~ 1800 kbps avg, 0.368 bit/pixel
Аудио: 48 kHz, AC3, 2 ch, 192.00 kbps Русский
Примечание: релиз рассчитан для записи на два диска DVD5, по 6 серий на диск.

Раздача от:
Общее
Полное имя : Strasti.po.Chapayu.2012.DVDRip_[Youtracker]_by_avproh\01.avi
Формат : AVI
Формат/Информация : Audio Video Interleave
Размер файла : 746 Мбайт
Продолжительность : 52 м.
Общий поток : 1981 Кбит/сек
Программа кодирования : VirtualDubMod 1.5.10.3 | www.virtualdub-fr.org || (build 2550/release)
Библиотека кодирования : VirtualDubMod build 2550/release

Видео
Идентификатор : 0
Формат : MPEG-4 Visual
Профиль формата : Advanced Simple@L5
Параметр BVOP формата : 1
Параметр QPel формата : Нет
Параметр GMC формата : Без точки перехода
Параметр матрицы формата : Выборочная
Идентификатор кодека : XVID
Идентификатор кодека/Подсказка : XviD
Продолжительность : 52 м.
Битрейт : 1780 Кбит/сек
Ширина : 720 пикселей
Высота : 400 пикселей
Соотношение сторон : 16:9
Частота кадров : 25,000 кадров/сек
Цветовое пространство : YUV
Субдискретизация насыщенности : 4:2:0
Битовая глубина : 8 бит
Тип развёртки : Прогрессивная
Метод сжатия : С потерями
Бит/(Пиксели*Кадры) : 0.247
Размер потока : 670 Мбайт (90%)
Библиотека кодирования : XviD 65

Аудио
Идентификатор : 1
Формат : AC-3
Формат/Информация : Audio Coding 3
Расширение режима : CM (complete main)
Параметр Endianness формата : Big
Идентификатор кодека : 2000
Продолжительность : 52 м.
Вид битрейта : Постоянный
Битрейт : 192 Кбит/сек
Каналы : 2 канала
Расположение каналов : Front: L R
Частота : 48,0 КГц
Битовая глубина : 16 бит
Метод сжатия : С потерями
Размер потока : 72,2 Мбайт (10%)
Выравнивание : Разделение по промежуткам
Продолжительность промежутка : 40 мс. (1,00 видеокадр)
Время предзагрузки промежутка : 500 мс.





   Похожие торренты   Торрент   Размер 
В этой теме нет новых непрочитанных сообщений. Страсти по Чапаю [01-12 из 12] (2012) DVDRip-AVC от Youtracker

347 | 60

8.71 ГБ

В этой теме нет новых непрочитанных сообщений. Страсти по Чапаю [01-12 из 12] (2012) 2xDVD9 от Youtracker | лицензия

363 | 20

15.66 ГБ

В этой теме нет новых непрочитанных сообщений. Страсти.net (2015) DVDRip-AVC

60 | 7

701.58 МБ

В этой теме нет новых непрочитанных сообщений. Туман 2 (2012) DVDRip-AVC от Youtracker

43 | 4

2.18 ГБ

В этой теме нет новых непрочитанных сообщений. 1812 [01-04 из 04] (2012) DVDRip от Youtracker

68 | 2

2.91 ГБ

В этой теме нет новых непрочитанных сообщений. Краплёный [01-24 из 24] (2012) DVDRip от Youtracker

322 | 89

8.78 ГБ

В этой теме нет новых непрочитанных сообщений. Разговор (2012) DVDRip от Youtracker

3 | 2

1.44 ГБ




Вы не можете начинать темы
Вы не можете отвечать на сообщения
Вы не можете редактировать свои сообщения
Вы не можете удалять свои сообщения
Вы не можете добавлять вложения

Перейти:  
Для Мосгорсуда, Роскомнадзора и рекламодателей: mosgorsud-torrent[собачка]yandex.ru
 Вход
ppkBB3cker v.2 © 2008-2014 @ PPK
[ Time : 0.049s | 18 Queries | GZIP : Off ]

cron