img image001 image001 image001 image001 image001 image001 image001 image001 image001 image001 image001 image001 image001 image001 image001

Planets Sun Sun Sun
Статистика раздачи
Автор: Снежана | Размер: 17.43 ГБ | Добавлен: 25 июл 2013
Раздают: 15    Качают: 9
Скачать торрент
Скачать торрент
Описание торрента

СообщениеДобавлено: 25 июл 2013 

#77

Страна: Россия
Год выпуска: 2012
Производство: Кинокомпания "Русское"
Жанр: драма, мелодрама
Продолжительность: 24 х ~ 00:49:00

Режиссёр: Андрей Селиванов

В ролях: Максим Аверин, Ольга Красько, Мария Кожевникова, Дмитрий Миллер, Евгений Галушко, Ольга Павловец, Екатерина Травова, Антон Эльдаров, Алёна Яковлева, Эммануил Виторган, Владимир Жеребцов, Лаура Кеосаян, Андриана Садковская, Александр Сетейкин, Руслан Ягудин, Анна Якунина, Игорь Петрусенко, Денис Давыдов, Серафима Низовская, Анна Кудасова, Юлия Маргулис, Кристина Кучеренко, Ольга Торощина, Андрей Бестужев (Погорельцев), Максим Щёголев, Дмитрий Арбенин, Игорь Мещерин, Владимир Довжик, Марина Могилевская, Андрей Москвичев, Константин Юшкевич, Дарья Егорова, Илья Ловкий, Леонид Тележинский, Виталий Герасимов, Владимир Демидов, Александр Дзюба, Всеволод Макаров, Марина Богатова, Алина Волощук, Ирина Сенотова, Виктор Полторацкий

Описание: Фильм приоткрывает завесу главного института скорой помощи – знаменитого Склифа. Здесь нет времени на долгие раздумья, Склиф – это внеплановые операции, и, чтобы спасти человека, принять верное решение надо здесь и сейчас.
Как никому другому, это удается главному герою, хирургу Брагину. Помимо профессиональных удач, за Брагиным тянется и слава первого ловеласа, благо мужского обаяния ему не занимать.. Видя каждый день жизнь и смерть, Брагин давно утратил сентиментальность и не утруждает себя мыслями о чужих чувствах, «великие страсти» только веселят его...





Исходник: 4 x DVD9 R5
Качество: DVDRip-AVC
Формат: MKV
Дополнительно: Раздача рассчитана для записи на четыре диска DVD5 по 6 серий на диск, поэтому битрейт видео у файлов несколько отличается.

Видео: 720x428@768x428 (16:9), 25 fps, H264 ~ 2000 kbps avg, 0.258 bit/pixel
Аудио: 48 kHz, AC3, 2 ch, 192.00 kbps
Раздача от:
Общее
Полное имя : Sklif.2012.O.DVDRip-AVC_[Youtraker]_by_avproh\01.mkv
Формат : Matroska
Версия формата : Version 2
Размер файла : 700 Мбайт
Продолжительность : 44 м.
Общий поток : 2178 Кбит/сек
Дата кодирования : UTC 2012-11-18 11:18:12
Программа кодирования : mkvmerge v5.0.1 ('Es ist Sommer') built on Nov 6 2011 16:23:40
Библиотека кодирования : libebml v1.2.2 + libmatroska v1.3.0

Видео
Идентификатор : 1
Формат : AVC
Формат/Информация : Advanced Video Codec
Профиль формата : High@L4.1
Параметр CABAC формата : Да
Параметр ReFrames формата : 11 кадров
Идентификатор кодека : V_MPEG4/ISO/AVC
Продолжительность : 44 м.
Битрейт : 1987 Кбит/сек
Ширина : 720 пикселей
Высота : 428 пикселей
Соотношение сторон : 16:9
Соотношение сторон в оригинале : 16:9
Частота кадров : 25,000 кадров/сек
Цветовое пространство : YUV
Субдискретизация насыщенности : 4:2:0
Битовая глубина : 8 бит
Тип развёртки : Прогрессивная
Бит/(Пиксели*Кадры) : 0.258
Размер потока : 624 Мбайт (89%)
Библиотека кодирования : x264 core 119 r2106 07efeb4
Настройки программы : cabac=1 / ref=11 / deblock=1:-2:-1 / analyse=0x3:0x113 / me=umh / subme=9 / psy=1 / psy_rd=1.00:0.20 / mixed_ref=1 / me_range=32 / chroma_me=1 / trellis=1 / 8x8dct=1 / cqm=0 / deadzone=21,11 / fast_pskip=0 / chroma_qp_offset=-3 / threads=9 / sliced_threads=0 / nr=0 / decimate=0 / interlaced=0 / bluray_compat=0 / constrained_intra=0 / bframes=8 / b_pyramid=2 / b_adapt=2 / b_bias=0 / direct=3 / weightb=1 / open_gop=0 / weightp=2 / keyint=250 / keyint_min=25 / scenecut=40 / intra_refresh=0 / rc_lookahead=60 / rc=2pass / mbtree=1 / bitrate=1987 / ratetol=1.0 / qcomp=0.60 / qpmin=0 / qpmax=69 / qpstep=4 / cplxblur=20.0 / qblur=0.5 / ip_ratio=1.40 / aq=1:1.00
Default : Да
Forced : Нет

Аудио
Идентификатор : 2
Формат : AC-3
Формат/Информация : Audio Coding 3
Расширение режима : CM (complete main)
Параметр Endianness формата : Big
Идентификатор кодека : A_AC3
Продолжительность : 44 м.
Вид битрейта : Постоянный
Битрейт : 192 Кбит/сек
Каналы : 2 канала
Расположение каналов : Front: L R
Частота : 48,0 КГц
Битовая глубина : 16 бит
Метод сжатия : С потерями
Размер потока : 61,7 Мбайт (9%)
Default : Да
Forced : Нет





   Похожие торренты   Торрент   Размер 
В этой теме нет новых непрочитанных сообщений. Склиф / Склифосовский [01-24 из 24] (2012) DVDRip от Youtracker

206 | 50

17.47 ГБ

В этой теме нет новых непрочитанных сообщений. Склиф / Склифосовский [01-24 из 24] (2012) SATRip от Youtracker

63 | 19

17.5 ГБ

В этой теме нет новых непрочитанных сообщений. Склиф / Склифосовский [01-24 из 24] (2012) 4xDVD9 от Youtracker | лицензия

4 | 2

30.54 ГБ

В этой теме нет новых непрочитанных сообщений. Склиф / Склифосовский [01-24 из 24] (2012) DVB

2 | 7

45.02 ГБ

В этой теме нет новых непрочитанных сообщений. Склифосовский / Склиф [S02] (2012) SATRip от КинозалSAT

270 | 93

12.89 ГБ

В этой теме нет новых непрочитанных сообщений. Склиф / Склифосовский [01-24 из 24] (2012) HDTV 1080i

12 | 15

66.42 ГБ

В этой теме нет новых непрочитанных сообщений. Склиф / Склифосовский [01-24 из 24] (2012) HDTVRip от Files-x

351 | 205

14.54 ГБ




Вы не можете начинать темы
Вы не можете отвечать на сообщения
Вы не можете редактировать свои сообщения
Вы не можете удалять свои сообщения
Вы не можете добавлять вложения

Перейти:  
Для Мосгорсуда, Роскомнадзора и рекламодателей: mosgorsud-torrent[собачка]yandex.ru
 Вход
ppkBB3cker v.2 © 2008-2014 @ PPK
[ Time : 0.052s | 18 Queries | GZIP : Off ]

Торрент трекер RUTOR.IN, Не можете зайти на rutor.org? Какой новый адрес рутор? Какое зеркало рутор? Не работает rutor.org и зеркала? Тогда наш торрент специально для вас. Rutor.in неофициальное зеркало rutor. В случае если у Вас заблокирован rutor или вдруг Вы не можете на него зайти, то Вы без труда сможете скачать бесплатно и без рекламы последние новинки кино, игр, сериалов и прочего у нас, на Rutor.in. Не нужно использовать прокси, чтобы зайти на рутор, достаточно воспользоваться нашим ресурсом. Все новые фильмы, игры, сериалы, книги и музыка за 2013 и 2014 годы через торрент бесплатно. Скачивайте фильмы в хорошем качестве, игры для пк, xbox, playstation без регистрации. У нас вы найдете новые Зарубежные сериалы и Русские сериалы 2013, 2014, 2015 годов. Оставайтесь с нами, качайте любимые фильмы, игры, сериалы, книги и музыку.
cron