img image001 image001 image001 image001 image001 image001 image001 image001 image001 image001 image001 image001 image001 image001 image001

Planets Sun Sun Sun
Статистика раздачи
Автор: Снежана | Размер: 4.3 ГБ | Добавлен: 25 июл 2013
Раздают: 0    Качают: 2
Скачать торрент
Скачать торрент
Описание торрента

СообщениеДобавлено: 25 июл 2013 

#77

Название: Последний Чаптер
Название сезона: Война продолжается
Оригинальное название: The Last Chapter
Оригинальное название сезона: The War Continues
Год выхода: 2003
Жанр: Драма, криминал
Режиссер: Рой Ричард
В ролях: Майкл Айронсайд, Рой Дюпюи, Райан Квантен, Жан Пьер Бержерон, Фрэнк Скорпион, Марина Орсини, Тони Конте и др.

Описание: Жестокий мир байкеров в котором бок о бок идут братство и кровная вражда, любовь и ненависть, семейные ценности и безжалостные убийства. Любовь к брату перерастающая в ненависть к врагу. Жизнь в байк клубе и борьба за выживание каждый день как единственно возможный способ существования. Бизнес, строящийся на крови всех кто стоит на пути, амбиции убивающие все человечное, превращающие человека в жестокого хищника, готового на все.

Страна: Канада
Продолжительность: 06 x ~ 00:45:00


Перевод к 01-02 сериям: Любительский двухголосный закадровый (1001 cinema)
Автор перевод: toha_hippy
Редактура: toha_hippy
Озвучка: kiitos, Chertenok
Монтаж и сведение звука: kiitos

Перевод к 03-06 сериям: Русские субтитры
Автор перевода: Marika




Тех.данные к 01-02 сериям
Качество: DVDRip
Формат: AVI
Видео кодек: XviD
Аудио кодек: AC3
Видео: 624x352 (1.77:1), 25 fps, XviD MPEG-4 ~1313 kbps avg, 0.24 bit/pixel
Аудио Rus: 48 kHz, AC3 Dolby Digital, 3/2 (L,C,R,l,r) + LFE ch, ~448.00 kbps avg
Аудио Eng: 48 kHz, AC3 Dolby Digital, 3/2 (L,C,R,l,r) + LFE ch, ~448.00 kbps avg
Формат : AVI
Формат/Информация : Audio Video Interleave
Размер файла : 1,37 Гбайт
Продолжительность : 1 ч. 28 м.
Общий поток : 2224 Кбит/сек
Программа кодирования : VirtualDubMod 1.5.10.2 (build 2540/release)
Библиотека кодирования : VirtualDubMod build 2540/release

Видео
Идентификатор : 0
Формат : MPEG-4 Visual
Профиль формата : Advanced Simple@L5
Параметр BVOP формата : 2
Параметр QPel формата : Нет
Параметр GMC формата : Без точки перехода
Параметр матрицы формата : Default (H.263)
Режим смешивания : Сжатый битовый поток
Идентификатор кодека : XVID
Идентификатор кодека/Подсказка : XviD
Продолжительность : 1 ч. 28 м.
Битрейт : 1314 Кбит/сек
Ширина : 624 пикс.
Высота : 352 пикс.
Соотношение сторон : 16:9
Частота кадров : 25,000 кадр/сек
Цветовое пространство : YUV
Подвыборка цветности : 4:2:0
Битовая глубина : 8 бит
Тип развёртки : Прогрессивная
Метод сжатия : С потерями
Бит/(Пиксели*Кадры) : 0.239
Размер потока : 829 Мбайт (59%)
Библиотека кодирования : XviD 1.2.1 (UTC 2008-12-04)

Аудио #1
Идентификатор : 1
Формат : AC-3
Формат/Информация : Audio Coding 3
Расширение режима : CM (complete main)
Идентификатор кодека : 2000
Продолжительность : 1 ч. 28 м.
Вид битрейта : Постоянный
Битрейт : 448 Кбит/сек
Каналы : 6 каналов
Расположение каналов : Front: L C R, Side: L R, LFE
Частота : 48,0 КГц
Битовая глубина : 16 бит
Метод сжатия : С потерями
Размер потока : 283 Мбайт (20%)
Выравнивание : Разделение по промежуткам
Продолжительность промежутка : 40 мс. (1,00 видеокадр)
Время предзагрузки промежутка : 500 ms

Аудио #2
Идентификатор : 2
Формат : AC-3
Формат/Информация : Audio Coding 3
Расширение режима : CM (complete main)
Идентификатор кодека : 2000
Продолжительность : 1 ч. 28 м.
Вид битрейта : Постоянный
Битрейт : 448 Кбит/сек
Каналы : 6 каналов
Расположение каналов : Front: L C R, Side: L R, LFE
Частота : 48,0 КГц
Битовая глубина : 16 бит
Метод сжатия : С потерями
Размер потока : 283 Мбайт (20%)
Выравнивание : Разделение по промежуткам
Продолжительность промежутка : 40 мс. (1,00 видеокадр)
Время предзагрузки промежутка : 500 ms


Тех.данные к 03-06 сериям
Качество: DVDRip
Формат: AVI
Видео кодек: XviD
Аудио кодек: AC3
Видео: 688x400, 25.000 fps, 1978 kbps, 0.287 bit/pixel
Аудио: 48.0 KHz, 384 Kbps, 2 ch.
Формат : AVI
Формат/Информация : Audio Video Interleave
Размер файла : 1,46 Гбайт
Продолжительность : 1 ч. 28 м.
Общий поток : 2372 Кбит/сек
Программа кодирования : VirtualDubMod 1.5.10.2 (build 2540/release)
Библиотека кодирования : VirtualDubMod build 2540/release

Видео
Идентификатор : 0
Формат : MPEG-4 Visual
Профиль формата : Advanced Simple@L5
Параметр BVOP формата : 1
Параметр QPel формата : Нет
Параметр GMC формата : Без точки перехода
Параметр матрицы формата : Default (MPEG)
Идентификатор кодека : XVID
Идентификатор кодека/Подсказка : XviD
Продолжительность : 1 ч. 28 м.
Битрейт : 1978 Кбит/сек
Ширина : 688 пикс.
Высота : 400 пикс.
Соотношение сторон : 16:9
Частота кадров : 25,000 кадр/сек
Цветовое пространство : YUV
Подвыборка цветности : 4:2:0
Битовая глубина : 8 бит
Тип развёртки : Прогрессивная
Метод сжатия : С потерями
Бит/(Пиксели*Кадры) : 0.287
Размер потока : 1,22 Гбайт (83%)
Библиотека кодирования : XviD 1.2.1 (UTC 2008-12-04)

Аудио
Идентификатор : 1
Формат : AC-3
Формат/Информация : Audio Coding 3
Расширение режима : CM (complete main)
Идентификатор кодека : 2000
Продолжительность : 1 ч. 28 м.
Вид битрейта : Постоянный
Битрейт : 384 Кбит/сек
Каналы : 2 канала
Расположение каналов : Front: L R
Частота : 48,0 КГц
Битовая глубина : 16 бит
Метод сжатия : С потерями
Размер потока : 242 Мбайт (16%)
Выравнивание : Соединение по промежуткам
Продолжительность промежутка : 40 мс. (1,00 видеокадр)
Время предзагрузки промежутка : 512 ms




   Похожие торренты   Торрент   Размер 
В этой теме нет новых непрочитанных сообщений. Последний Чаптер / The Last Chapter [S01-02] (2002-2003) DVDRip

51 | 10

8.78 ГБ

В этой теме нет новых непрочитанных сообщений. Последний Чаптер / The Last Chapter [S01] (2002) DVDRip | L2

14 | 3

4.15 ГБ

В этой теме нет новых непрочитанных сообщений. Последний поезд (2003) DVDRip

48 | 4

1.37 ГБ

В этой теме нет новых непрочитанных сообщений. VA - Armin van Buuren presents Universal Religion Chapter 1-6 (2003-2012) MP3

1 | 2

1.38 ГБ

В этой теме нет новых непрочитанных сообщений. Последний танец / One Lat Dance (2003) DVDRip от ExKinoRay

2 | 3

1.47 ГБ

В этой теме нет новых непрочитанных сообщений. Работа / Последний контракт / The Job (2003) DVDRip от NovaLan

2 | 1

1.47 ГБ

В этой теме нет новых непрочитанных сообщений. Последний рейд / The Missing (2003) DVDRip от ExKinoRay

62 | 9

2.47 ГБ




Вы не можете начинать темы
Вы не можете отвечать на сообщения
Вы не можете редактировать свои сообщения
Вы не можете удалять свои сообщения
Вы не можете добавлять вложения

Перейти:  
Для Мосгорсуда, Роскомнадзора и рекламодателей: mosgorsud-torrent[собачка]yandex.ru
 Вход
ppkBB3cker v.2 © 2008-2014 @ PPK
[ Time : 0.027s | 16 Queries | GZIP : Off ]

Торрент трекер RUTOR.IN, Не можете зайти на rutor.org? Какой новый адрес рутор? Какое зеркало рутор? Не работает rutor.org и зеркала? Тогда наш торрент специально для вас. Rutor.in неофициальное зеркало rutor. В случае если у Вас заблокирован rutor или вдруг Вы не можете на него зайти, то Вы без труда сможете скачать бесплатно и без рекламы последние новинки кино, игр, сериалов и прочего у нас, на Rutor.in. Не нужно использовать прокси, чтобы зайти на рутор, достаточно воспользоваться нашим ресурсом. Все новые фильмы, игры, сериалы, книги и музыка за 2013 и 2014 годы через торрент бесплатно. Скачивайте фильмы в хорошем качестве, игры для пк, xbox, playstation без регистрации. У нас вы найдете новые Зарубежные сериалы и Русские сериалы 2013, 2014, 2015 годов. Оставайтесь с нами, качайте любимые фильмы, игры, сериалы, книги и музыку.