img image001 image001 image001 image001 image001 image001 image001 image001 image001 image001 image001 image001 image001 image001 image001

Planets Sun Sun Sun
Статистика раздачи
Автор: Снежана | Размер: 18 ГБ | Добавлен: 25 июл 2013
Раздают: 13    Качают: 6
Скачать торрент
Скачать торрент
Описание торрента

СообщениеДобавлено: 25 июл 2013 

Налёт / Braquo

Год выпуска: 2009
Страна: Франция
Жанр: триллер
Продолжительность: 50 минут
Перевод: Профессиональный многоголосый закадровый (Baibako)
Оригинальная дорожка: французская
Русские субтитры: нет
Субтитры: нет

Режиссёр: Оливье Маршаль, Фредерик Шендерфер, Филипп Аим

В ролях: Жан-Юг Англад, Николя Дювошель, Джозеф Малерба, Кяроль Роше, Ален Фиглаж, Самюэль Ле Бьян, Паскаль Элсо, Жоэль Лефрансуа, Софи Брусталь

Описание: Жизнь четверых сотрудников судебной полиции Парижского региона резко меняется, когда их друг и коллега Макс, несправедливо обвиненный, совершает самоубийство. С этого момента четверка начинает вести собственное расследование, чтобы восстановить справедливость и честное имя друга — даже если при этом им приходится рисковать и обходить закон.

Доп. информация:
Перевод: zymova
Озвучка: Елена Григорьева, Руслан Иванов, Олекса Мельник и Виталий Ткаченко.
Тизер

Качество: BDRip 720p
Формат: MKV
Видео кодек: H.264
Аудио кодек: AC3
Видео: AVC High@L4.1 x264 1280x720 4762 Кбит/сек 25,000 кадров/сек 0.253 bit/pixel
Аудио: rus: AC3 48000Hz 6 каналов 384Kbps
Аудио 2: fre: AC3 48000Hz 6 каналов 384Kbps

General
Unique ID : 245915968586113343269513406754806316406 (0xB901B15964F058A7A3A108BC7AF83D76)
Complete name : Braquo.s01.HD720p.BluRay.Rus-Fre.BaibaKo.tvBraquo.s01e03.HD720p.BluRay.Rus-Fre.BaibaKo.tv.mkv
Format : Matroska
File size : 1.96 GiB
Duration : 48mn 8s
Overall bit rate : 5 822 Kbps
Movie name : BaibaKo.tv presents - Налёт 1х03
Encoded date : UTC 2012-07-06 00:52:56
Writing application : mkvmerge v5.4.0 ('Piper') built on Mar 10 2012 13:34:39
Writing library : libebml v1.2.3 + libmatroska v1.3.0

Video
ID : 1
Format : AVC
Format/Info : Advanced Video Codec
Format profile : High@L4.1
Format settings, CABAC : Yes
Format settings, ReFrames : 5 frames
Format settings, GOP : M=4, N=27
Codec ID : V_MPEG4/ISO/AVC
Duration : 48mn 8s
Bit rate : 4 992 Kbps
Width : 1 280 pixels
Height : 720 pixels
Display aspect ratio : 16:9
Frame rate : 25.000 fps
Color space : YUV
Chroma subsampling : 4:2:0
Bit depth : 8 bits
Scan type : Progressive
Bits/(Pixel*Frame) : 0.217
Stream size : 1.64 GiB (84%)
Writing library : x264 core 119 r2106 07efeb4
Encoding settings : cabac=1 / ref=5 / deblock=1:0:0 / analyse=0x3:0x113 / me=umh / subme=7 / psy=1 / psy_rd=1.00:0.00 / mixed_ref=1 / me_range=16 / chroma_me=1 / trellis=1 / 8x8dct=1 / cqm=0 / deadzone=21,11 / fast_pskip=0 / chroma_qp_offset=-2 / threads=18 / sliced_threads=0 / nr=0 / decimate=1 / interlaced=0 / bluray_compat=0 / constrained_intra=0 / bframes=3 / b_pyramid=2 / b_adapt=1 / b_bias=0 / direct=1 / weightb=1 / open_gop=0 / weightp=2 / keyint=250 / keyint_min=25 / scenecut=40 / intra_refresh=0 / rc_lookahead=40 / rc=2pass / mbtree=1 / bitrate=4992 / ratetol=1.0 / qcomp=0.60 / qpmin=0 / qpmax=69 / qpstep=4 / cplxblur=20.0 / qblur=0.5 / ip_ratio=1.40 / aq=1:1.00
Language : French

Audio #1
ID : 2
Format : AC-3
Format/Info : Audio Coding 3
Mode extension : CM (complete main)
Codec ID : A_AC3
Duration : 48mn 8s
Bit rate mode : Constant
Bit rate : 384 Kbps
Channel(s) : 6 channels
Channel positions : Front: L C R, Side: L R, LFE
Sampling rate : 48.0 KHz
Bit depth : 16 bits
Compression mode : Lossy
Stream size : 132 MiB (7%)
Title : Rus BaibaKo.tv DD5.1
Language : Russian

Audio #2
ID : 3
Format : AC-3
Format/Info : Audio Coding 3
Mode extension : CM (complete main)
Codec ID : A_AC3
Duration : 48mn 8s
Bit rate mode : Constant
Bit rate : 448 Kbps
Channel(s) : 6 channels
Channel positions : Front: L C R, Side: L R, LFE
Sampling rate : 48.0 KHz
Bit depth : 16 bits
Compression mode : Lossy
Stream size : 154 MiB (8%)
Title : Fre DD5.1
Language : French




   Похожие торренты   Торрент   Размер 
В этой теме нет новых непрочитанных сообщений. Налёт / Braquo [S01] (2009) BDRip 720p | P

67 | 24

15.67 ГБ

В этой теме нет новых непрочитанных сообщений. Налёт / Braquo [S03] (2014) BDRip 720p | BaibaKo

142 | 87

18.63 ГБ

В этой теме нет новых непрочитанных сообщений. Налёт / Braquo [03x01-04 из 08] (2014) BDRip 720p | BaibaKo

35 | 33

9.29 ГБ

В этой теме нет новых непрочитанных сообщений. Налёт / Braquo [03x01-06 из 08] (2014) BDRip 720p | BaibaKo

35 | 32

13.95 ГБ

В этой теме нет новых непрочитанных сообщений. Налёт / Braquo [S02] (2011) HDRip | P

33 | 6

5.04 ГБ

В этой теме нет новых непрочитанных сообщений. Налёт / Braquo [S02] (2011) HDRip-AVC | P

32 | 4

5.08 ГБ

В этой теме нет новых непрочитанных сообщений. Налёт / Braquo [S01-02] (2009-2011) HDRip | Amedia

248 | 82

12.73 ГБ




Вы не можете начинать темы
Вы не можете отвечать на сообщения
Вы не можете редактировать свои сообщения
Вы не можете удалять свои сообщения
Вы не можете добавлять вложения

Перейти:  
Для Мосгорсуда, Роскомнадзора и рекламодателей: mosgorsud-torrent[собачка]yandex.ru
 Вход
ppkBB3cker v.2 © 2008-2014 @ PPK
[ Time : 0.049s | 14 Queries | GZIP : Off ]

Торрент трекер RUTOR.IN, Не можете зайти на rutor.org? Какой новый адрес рутор? Какое зеркало рутор? Не работает rutor.org и зеркала? Тогда наш торрент специально для вас. Rutor.in неофициальное зеркало rutor. В случае если у Вас заблокирован rutor или вдруг Вы не можете на него зайти, то Вы без труда сможете скачать бесплатно и без рекламы последние новинки кино, игр, сериалов и прочего у нас, на Rutor.in. Не нужно использовать прокси, чтобы зайти на рутор, достаточно воспользоваться нашим ресурсом. Все новые фильмы, игры, сериалы, книги и музыка за 2013 и 2014 годы через торрент бесплатно. Скачивайте фильмы в хорошем качестве, игры для пк, xbox, playstation без регистрации. У нас вы найдете новые Зарубежные сериалы и Русские сериалы 2013, 2014, 2015 годов. Оставайтесь с нами, качайте любимые фильмы, игры, сериалы, книги и музыку.