img image001 image001 image001 image001 image001 image001 image001 image001 image001 image001 image001 image001 image001 image001 image001

Planets Sun Sun Sun
Статистика раздачи
Автор: Снежана | Размер: 1.56 ГБ | Добавлен: 25 июл 2013
Раздают: 50    Качают: 3
Скачать торрент
Скачать торрент
Описание торрента

СообщениеДобавлено: 25 июл 2013 

#77

Информация о фильме
Название: Великолепный век
Оригинальное название: Muhtesem Yüzyil
Год выхода: 2012
Жанр: драма, мелодрама, военный, биография, история
Режиссер: Дурул Тайлан / Durul Taylan, Ягмур Тайлан / Yagmur Taylan
В ролях: Небахат Чехре /Nebahat Çehre/, Окан Ялабик /Okan Yalabik/, Сельма Эргеч /Selma Ergeç/, Халит Эргенч /Halit Ergenç/, Филиз Ахмет /Filiz Ahmet/

О фильме:
Сюжет основан на реальных событиях, произошедших во времена правления султана Сулеймана I, и расказывает о периоде жизни девушки Роксоланы, взятой в плен турками и названной Хюррем. Позже она стала первой официальной женой Сулеймана, но для этого ей пришлось пройти сложный путь…

Страна: Турция
Продолжительность: ~ 100 минут серия
Перевод: Профессиональный (полное дублирование) [ТК Домашний]

Файл
Кодек: XviD / MP3
Качество: SATRip
Видео: XviD, 720x400 (16:9), 25.000 fps, 1500 kbps, 0.208 bit/pixel
Звук: MP3, 48.0 kHz, 2 ch, 192 kbps |Домашний|

Video
ID : 0
Format : MPEG-4 Visual
Format profile : Advanced Simple@L5
Format settings, BVOP : 2
Format settings, QPel : No
Format settings, GMC : No warppoints
Format settings, Matrix : Default (H.263)
Muxing mode : Packed bitstream
Codec ID : XVID
Codec ID/Hint : XviD
Duration : 2h 11mn
Bit rate : 1 497 Kbps
Width : 720 pixels
Height : 400 pixels
Display aspect ratio : 16:9
Frame rate : 25.000 fps
Color space : YUV
Chroma subsampling : 4:2:0
Bit depth : 8 bits
Scan type : Progressive
Compression mode : Lossy
Bits/(Pixel*Frame) : 0.208
Stream size : 1.38 GiB (88%)
Writing library : XviD 64

Audio
ID : 1
Format : MPEG Audio
Format version : Version 1
Format profile : Layer 3
Mode : Joint stereo
Mode extension : MS Stereo
Codec ID : 55
Codec ID/Hint : MP3
Duration : 2h 11mn
Bit rate mode : Constant
Bit rate : 192 Kbps
Channel(s) : 2 channels
Sampling rate : 48.0 KHz
Compression mode : Lossy
Delay relative to video : 10ms
Stream size : 181 MiB (11%)
Alignment : Split accross interleaves
Interleave, duration : 40 ms (1.00 video frame)
Interleave, preload duration : 500 ms



   Похожие торренты   Торрент   Размер 
В этой теме нет новых непрочитанных сообщений. Великолепный век / Muhtesem Yüzyil [03x64-65] (2012) SATRip | L

7 | 2

2.72 ГБ

В этой теме нет новых непрочитанных сообщений. Великолепный век / Muhtesem Yüzyil [S01x01-24 из 24] (2011) SATRip | D

496 | 284

28.48 ГБ

В этой теме нет новых непрочитанных сообщений. Великолепный век / Muhtesem Yüzyil [02x25-36] (2011) SATRip | D

61 | 48

16.39 ГБ

В этой теме нет новых непрочитанных сообщений. Великолепный век / Muhtesem Yüzyil [04x01-38] (2013) WEBDLRip, SATRip | D

81 | 89

31.62 ГБ

В этой теме нет новых непрочитанных сообщений. Великолепный век / Muhtesem Yüzyil [04x01-36] (2013) WEBDLRip, SATRip | D

5 | 4

30.06 ГБ

В этой теме нет новых непрочитанных сообщений. Великолепный век / Muhtesem Yüzyil [04x01-37] (2013) WEBDLRip, SATRip | D

1387 | 536

30.78 ГБ

В этой теме нет новых непрочитанных сообщений. Великолепный век / Muhtesem Yuzyil [S02] (2011-2012) TVRip | Sub

11 | 14

44.58 ГБ




Вы не можете начинать темы
Вы не можете отвечать на сообщения
Вы не можете редактировать свои сообщения
Вы не можете удалять свои сообщения
Вы не можете добавлять вложения

Перейти:  
Для Мосгорсуда, Роскомнадзора и рекламодателей: mosgorsud-torrent[собачка]yandex.ru
 Вход
ppkBB3cker v.2 © 2008-2014 @ PPK
[ Time : 0.051s | 15 Queries | GZIP : Off ]

cron