img image001 image001 image001 image001 image001 image001 image001 image001 image001 image001 image001 image001 image001 image001 image001

Planets Sun Sun Sun
Статистика раздачи
Автор: Снежана | Размер: 4.86 ГБ | Добавлен: 25 июл 2013
Раздают: 1    Качают: 3
Скачать торрент
Скачать торрент
Описание торрента

СообщениеДобавлено: 25 июл 2013 

#77

Название: Тёмная сторона: Хуже некуда
Оригинальное название: Underbelly: Badness
Год выпуска: 2012
Страна: Австралия
Жанр: Криминальная драма
Продолжительность: 08 х ~ 00:45:00
Перевод: Профессиональный многоголосый закадровый - Agatha Studdio
Субтитры: Отсутствуют
Режиссер: Питер Андрикидис

В ролях: Мэтью Нэйбл / Matt Nable, Jonathan LaPaglia, Джонатан ЛаПалья / Ben Winspear, Josh Quong Tart, Джейсон Монтгомери / Jason Montgomery, Ella Scott Lynch, Justin Smith, Aaron Jeffery...

Описание: Энтони Джон Майкл Пэриш жил по собственным правилам. Он был харизматичен и безжалостен. Его имя в криминальном мире знали все, оно вселяло страх даже в самых отчаянных головорезов. Но органы охраны правопорядка никогда о нём не слышали. Он был настолько умён, что несмотря на пятизвёздочный образ жизни и и известность в уголовном мире, полностью ускользал от радаров полиции. Он никогда не оставлял следов, жил без документов, он был невидимкой, призраком. Энтони Пэриш сделал только одну ошибку за всю криминальную карьеру. Но, на его несчастье, детектив Гари Джубелин её заметил...

Дополнительная информация: В саге Underbelly каждый сезон - это отдельный сериал. Сериалы не связаны между собой, но объединены общей тематикой: снято по реальным событиям, о криминале в Австралии. Действие 5 сезона между 2001-2012 гг.

Ограничение по возрасту: 15 лет.



Перевод: vipere
Редактура: Agatha
Озвучка: Владимир Курдов, Олекса Мельник, Татьяна Манетина
Работа со звуком: iRUSik, Михаил Шорыгин, Ozzi



Качество: WEB-DLRip
Формат: AVI
Видео кодек: XviD
Аудио кодек: MP3
Видео: 720x400 (16:9), 23.976 fps, MPEG4 Visual~1500 kbps, 0.217 bit/pixel
Аудио rus: 192 Кб/сек 48 kHz, MPEG Layer 3, 2 ch
Аудио eng: 192 Кб/сек 48 kHz, MPEG Layer 3, 2 ch

01. Thy Will Be Done
02. Cut Snake and Crazy
03. The Loaded Dog
04. Year of the Rooster
05. Troubleshooting
06. Road to Nowhere
07. Bang, Bang, Kill, Kill
08. Strike Force Tuno
General
Complete name : D: Underbelly.Badness.Agatha.StuddioUnderbelly.s05.Badness.e01.rus.eng.Agatha.Studdio.avi
Format : AVI
Format/Info : Audio Video Interleave
File size : 613 MiB
Duration : 45mn 9s
Overall bit rate : 1 898 Kbps
Movie name : Thy Will Be Done
Part/Position : 1
Director : Underbelly: Badness
Genre : Drama
Recorded date : UTC 2012-08-14 07:00:00
Writing application : VirtualDubModRus 1.5.10.2 (build 2542/release)
Writing library : VirtualDubMod build 2542/release
Original source form/Name : Underbelly: Badness
Copyright : © 2012 Screentime Pty Ltd and Nine Films & Television Pty Ltd

Video
ID : 0
Format : MPEG-4 Visual
Format profile : Advanced Simple@L5
Format settings, BVOP : 1
Format settings, QPel : No
Format settings, GMC : No warppoints
Format settings, Matrix : Default (H.263)
Codec ID : XVID
Codec ID/Hint : XviD
Duration : 45mn 9s
Bit rate : 1 500 Kbps
Width : 720 pixels
Height : 400 pixels
Display aspect ratio : 16:9
Frame rate : 23.976 fps
Color space : YUV
Chroma subsampling : 4:2:0
Bit depth : 8 bits
Scan type : Progressive
Compression mode : Lossy
Bits/(Pixel*Frame) : 0.217
Stream size : 484 MiB (79%)
Writing library : XviD 64

Audio #1
ID : 1
Format : MPEG Audio
Format version : Version 1
Format profile : Layer 3
Codec ID : 55
Codec ID/Hint : MP3
Duration : 45mn 9s
Bit rate mode : Constant
Bit rate : 192 Kbps
Channel(s) : 2 channels
Sampling rate : 48.0 KHz
Compression mode : Lossy
Stream size : 62.0 MiB (10%)
Alignment : Aligned on interleaves
Interleave, duration : 42 ms (1.00 video frame)
Interleave, preload duration : 504 ms

Audio #2
ID : 2
Format : MPEG Audio
Format version : Version 1
Format profile : Layer 3
Codec ID : 55
Codec ID/Hint : MP3
Duration : 45mn 9s
Bit rate mode : Constant
Bit rate : 192 Kbps
Channel(s) : 2 channels
Sampling rate : 48.0 KHz
Compression mode : Lossy
Stream size : 62.0 MiB (10%)
Alignment : Aligned on interleaves
Interleave, duration : 42 ms (1.00 video frame)
Interleave, preload duration : 504 ms






Релиз от:



   Похожие торренты   Торрент   Размер 
В этой теме нет новых непрочитанных сообщений. Темная сторона / Underbelly [S01] (2008) DVDRip | Fox Crime

20 | 4

7.95 ГБ

В этой теме нет новых непрочитанных сообщений. Темная сторона души [01-04 из 04] (2015) WEB-DLRip от Files-x

883 | 79

2.15 ГБ

В этой теме нет новых непрочитанных сообщений. Темная сторона души [01-04 из 04] (2015) WEB-DLRip-AVC от ExKinoRay

798 | 137

2.93 ГБ

В этой теме нет новых непрочитанных сообщений. Темная сторона желания 2 / Jism 2 (2012) HDRip

117 | 5

2.19 ГБ

В этой теме нет новых непрочитанных сообщений. Темная сторона желания 2 / Страсть 2 / Jism 2 (2012) BDRip от ICG & Generalfilm | L

59 | 9

2.19 ГБ

В этой теме нет новых непрочитанных сообщений. Саймон Грин - Темная сторона: Суровое наказание / Hell to pay (2012) PDF, DOC, RTF

0 | 2

4.58 МБ

В этой теме нет новых непрочитанных сообщений. Темная сторона желания 2 / Страсть 2 / Jism 2 (2012) BDRip 1080p | L

1 | 3

8.36 ГБ




Вы не можете начинать темы
Вы не можете отвечать на сообщения
Вы не можете редактировать свои сообщения
Вы не можете удалять свои сообщения
Вы не можете добавлять вложения

Перейти:  
Для Мосгорсуда, Роскомнадзора и рекламодателей: mosgorsud-torrent[собачка]yandex.ru
 Вход
ppkBB3cker v.2 © 2008-2014 @ PPK
[ Time : 0.045s | 16 Queries | GZIP : Off ]

Торрент трекер RUTOR.IN, Не можете зайти на rutor.org? Какой новый адрес рутор? Какое зеркало рутор? Не работает rutor.org и зеркала? Тогда наш торрент специально для вас. Rutor.in неофициальное зеркало rutor. В случае если у Вас заблокирован rutor или вдруг Вы не можете на него зайти, то Вы без труда сможете скачать бесплатно и без рекламы последние новинки кино, игр, сериалов и прочего у нас, на Rutor.in. Не нужно использовать прокси, чтобы зайти на рутор, достаточно воспользоваться нашим ресурсом. Все новые фильмы, игры, сериалы, книги и музыка за 2013 и 2014 годы через торрент бесплатно. Скачивайте фильмы в хорошем качестве, игры для пк, xbox, playstation без регистрации. У нас вы найдете новые Зарубежные сериалы и Русские сериалы 2013, 2014, 2015 годов. Оставайтесь с нами, качайте любимые фильмы, игры, сериалы, книги и музыку.
cron