img image001 image001 image001 image001 image001 image001 image001 image001 image001 image001 image001 image001 image001 image001 image001

Planets Sun Sun Sun
Статистика раздачи
Автор: Снежана | Размер: 7.95 ГБ | Добавлен: 25 июл 2013
Раздают: 20    Качают: 4
Скачать торрент
Скачать торрент
Описание торрента

СообщениеДобавлено: 25 июл 2013 

#77

Название: Темная сторона
Оригинальное название: Underbelly
Год выпуска: 2008
Страна: Австралия
Жанр: Драма, криминал, детектив
Режиссер: Тони Тилс

В ролях: Кэролайн Крэйг, Rodger Corser, Гайтон Грантли, Кэт Стюарт, Фрэнки Дж. Холден, Рой Биллинг, Анна Хатчинсон, Ашер Кедди, Мэттью Ньютон, Питер Фелпс.

Описание: Сериал «Темная сторона» основан на реальных событиях, происходивших в Мельбурне (Австралия) между 1995-м и 2004-м годами. Это история гангстерских разборок между соперничавшими группировками криминального мира Мельбурна. В центре внимания — жестокая война между двумя бандами и еще более серьезная моральная война между бандами и оперативной группой Purana, на фоне которых разворачивается сложная паутина личных историй и отношений — иногда трогательных, иногда удивительных и всегда захватывающих.



Продолжительность: 13 х ~ 00:42:00
Перевод: Профессиональный (многоголосый, закадровый) - Fox Crime
Субтитры: нет



Качество: DVDRip
Формат: AVI
Видео кодек: DivX
Аудио кодек: MP3
Видео: 688x384 (1.79:1), 25 fps, DivX Codec 6.8.3 ~1803 kbps avg, 0.27 bit/pixel
Аудио rus: 48 kHz, MPEG Layer 3, 2 ch, ~128.00 kbps avg
Аудио eng: 48 kHz, MPEG Layer 3, 2 ch, ~128.00 kbps avg

01. The Black Prince
02. Sorcerer's Apprentice
03. Still Pray
04. Cocksure
05. The Good, The Bad, The Ugly
06. Luv U 4 Eva
07. Wise Monkeys
08. Earning A Crust
09. Suffer The Children
10. Scratched
11. Barbarians At The Gate
12. Best Laid Plans
13. Team Purana
Формат : AVI
Формат/Информация : Audio Video Interleave
Размер файла : 628 Мбайт
Продолжительность : 42 м.
Общий поток : 2075 Кбит/сек
Программа кодирования : VirtualDubMod 1.5.10.2 (build 2542/release)
Библиотека кодирования : VirtualDubMod build 2542/release

Видео
Идентификатор : 0
Формат : MPEG-4 Visual
Параметр BVOP формата : 1
Параметр QPel формата : Нет
Параметр GMC формата : Без точки перехода
Параметр матрицы формата : Default (H.263)
Режим смешивания : Сжатый битовый поток
Идентификатор кодека : DX50
Идентификатор кодека/Подсказка : DivX 5
Продолжительность : 42 м.
Битрейт : 1804 Кбит/сек
Ширина : 688 пикс.
Высота : 384 пикс.
Соотношение сторон : 16:9
Частота кадров : 25,000 кадр/сек
Цветовое пространство : YUV
Подвыборка цветности : 4:2:0
Битовая глубина : 8 бит
Тип развёртки : Прогрессивная
Метод сжатия : С потерями
Бит/(Пиксели*Кадры) : 0.273
Размер потока : 546 Мбайт (87%)
Библиотека кодирования : DivX 6.8.3-6.8.4 (UTC 2008-06-07)

Аудио #1
Идентификатор : 1
Формат : MPEG Audio
Версия формата : Version 1
Профиль формата : Layer 3
Режим : Joint stereo
Расширение режима : MS Stereo
Идентификатор кодека : 55
Идентификатор кодека/Подсказка : MP3
Продолжительность : 42 м.
Вид битрейта : Постоянный
Битрейт : 128 Кбит/сек
Каналы : 2 канала
Частота : 48,0 КГц
Метод сжатия : С потерями
Размер потока : 38,8 Мбайт (6%)
Выравнивание : Соединение по промежуткам
Продолжительность промежутка : 40 мс. (1,00 видеокадр)
Время предзагрузки промежутка : 504 ms

Аудио #2
Идентификатор : 2
Формат : MPEG Audio
Версия формата : Version 1
Профиль формата : Layer 3
Режим : Joint stereo
Расширение режима : MS Stereo
Идентификатор кодека : 55
Идентификатор кодека/Подсказка : MP3
Продолжительность : 42 м.
Вид битрейта : Постоянный
Битрейт : 128 Кбит/сек
Каналы : 2 канала
Частота : 48,0 КГц
Метод сжатия : С потерями
Размер потока : 38,8 Мбайт (6%)
Выравнивание : Соединение по промежуткам
Продолжительность промежутка : 40 мс. (1,00 видеокадр)
Время предзагрузки промежутка : 504 ms


Релиз от:



   Похожие торренты   Торрент   Размер 
В этой теме нет новых непрочитанных сообщений. Тёмная сторона: Хуже некуда / Underbelly: Badness [S05] (2012) WEB-DLRip | P

1 | 3

4.86 ГБ

В этой теме нет новых непрочитанных сообщений. Железный Человек: Темная сторона / Metal Man (2008) DVDRip

1 | 4

699.96 МБ

В этой теме нет новых непрочитанных сообщений. Криминальная Австралия / Underbelly [s01] (2008) DVDRip | P

81 | 23

7.95 ГБ

В этой теме нет новых непрочитанных сообщений. Темная сторона солнца / The Dark Side of the Sun (1997) DVDRip

34 | 2

1.36 ГБ

В этой теме нет новых непрочитанных сообщений. Темная сторона солнца / The Dark Side of the Sun (1988) DVDRip

23 | 9

743.87 МБ

В этой теме нет новых непрочитанных сообщений. Темная сторона Венеры / Ciemna strona Wenus (1998) DVDRip | A

3 | 26

1.37 ГБ

В этой теме нет новых непрочитанных сообщений. Гриффины: Что-то, что-то, что-то, тёмная сторона / Family Guy Presents: Something, Something, Something, Dark Side (2009) DVDRip

13 | 3

722.58 МБ




Вы не можете начинать темы
Вы не можете отвечать на сообщения
Вы не можете редактировать свои сообщения
Вы не можете удалять свои сообщения
Вы не можете добавлять вложения

Перейти:  
Для Мосгорсуда, Роскомнадзора и рекламодателей: mosgorsud-torrent[собачка]yandex.ru
 Вход
ppkBB3cker v.2 © 2008-2014 @ PPK
[ Time : 0.070s | 14 Queries | GZIP : Off ]

Торрент трекер RUTOR.IN, Не можете зайти на rutor.org? Какой новый адрес рутор? Какое зеркало рутор? Не работает rutor.org и зеркала? Тогда наш торрент специально для вас. Rutor.in неофициальное зеркало rutor. В случае если у Вас заблокирован rutor или вдруг Вы не можете на него зайти, то Вы без труда сможете скачать бесплатно и без рекламы последние новинки кино, игр, сериалов и прочего у нас, на Rutor.in. Не нужно использовать прокси, чтобы зайти на рутор, достаточно воспользоваться нашим ресурсом. Все новые фильмы, игры, сериалы, книги и музыка за 2013 и 2014 годы через торрент бесплатно. Скачивайте фильмы в хорошем качестве, игры для пк, xbox, playstation без регистрации. У нас вы найдете новые Зарубежные сериалы и Русские сериалы 2013, 2014, 2015 годов. Оставайтесь с нами, качайте любимые фильмы, игры, сериалы, книги и музыку.