img image001 image001 image001 image001 image001 image001 image001 image001 image001 image001 image001 image001 image001 image001 image001

Planets Sun Sun Sun
Статистика раздачи
Автор: Снежана | Размер: 32.14 ГБ | Добавлен: 25 июл 2013
Раздают: 43    Качают: 9
Скачать торрент
Скачать торрент
Описание торрента

СообщениеДобавлено: 25 июл 2013 

#77

Информация о фильме
Название: Касл
Оригинальное название: Castle
Год выхода: 2011
Жанр: драма, комедия, криминал, детектив, ...
Режиссер: Роб Боумен, Джон Терлески, Брайан Спайсер, ...
В ролях: Стана Катич (Кейт Беккет), Натан Филлион (Ричард Касл), Молли С. Куинн (Алексис Касл), Симус Девер (Кевин Райан), Джон Уэртас (Хавьер Эспозито), Тэмела Джонс (Лэни Пэриш) и др.

О фильме:
Знакомьтесь, Ричард Касл — успешный писатель детективного жанра, который в последней книге убил своего главного героя. Но кажется, что одному из почитателей его таланта книги понравились слегка чересчур — в городе появляется подражатель, совершающий преступления, с убийственной точностью копируя способы, которыми Касл убивал в своих произведениях. И вот наш изнывающий от скуки писатель был вызван в отдел убийств Нью-йоркской полиции, чтобы помочь найти убийцу.



Страна: США
Продолжительность: ~40m
Перевод:
1. Профессиональный (многоголосый, закадровый) Fox Life
2. Оригинальная звуковая дорожка

Файл
Кодек: h.264
Качество: WEB-DL 720p
Видео: AVC at 4 000 Kbps 1280x720 (1.778) at 23.976 fps 0.183 bit/pixel
Звук:
Rus: AC-3 at 192 Kbps 2.0 channels, 48.0 KHz
Eng: AC-3 at 384 Kbps 5.1 channels, 48.0 KHz

01. Rise / Наперекор всему
02. Heroes and Villains / Герои и злодеи
03. Head Case / Дело о голове
04. Kick the Ballistics / Отчёт по баллистике
05. Eye of the Beholder / Взгляд наблюдателя
06. Demons / Демоны
07. Cops & Robbers / Полицейские и воры
08. Heartbreak Hotel / Отель разбитых сердец
09. Kill Shot / Убийственный выстрел
10. Cuffed / Скованные
11. Till Death Do Us Part / Пока смерть не разлучит нас
12. Dial M for Mayor / В случае убийства позвоните мэру
13. An Embarrassment of Bitches / Каждому кобелю по паре
14. The Blue Butterfly / Голубая бабочка
15. Pandora / Пандора
16. Linchpin / Стержень
17. Once Upon a Crime / Преступление давным-давно
18. A Dance with Death / Танец со смертью
19. 47 Seconds / 47 секунд
20. The Limey / Англичанин
21. Headhunters / Охотники за головами
22. Undead Again / И снова о нежити
23. Always / Всегда
General
Unique ID : 235624981633763940240491036154694644969 (0xB143B884DE64C06E81BC5B5218B2B4E9)
Complete name :
Format : Matroska
Format version : Version 2
File size : 1.41 GiB
Duration : 42mn 59s
Overall bit rate : 4 705 Kbps
Encoded date : UTC 2012-02-11 19:31:52
Writing application : mkvmerge v4.5.0 ('Speed of Light') сборка от Feb 1 2011 02:10:32
Writing library : libebml v1.2.0 + libmatroska v1.1.0

Video
ID : 1
Format : AVC
Format/Info : Advanced Video Codec
Format profile : High@L3.1
Format settings, CABAC : No
Format settings, ReFrames : 2 frames
Codec ID : V_MPEG4/ISO/AVC
Duration : 42mn 59s
Bit rate : 4 035 Kbps
Width : 1 280 pixels
Height : 720 pixels
Display aspect ratio : 16:9
Frame rate mode : Constant
Frame rate : 23.976 fps
Color space : YUV
Chroma subsampling : 4:2:0
Bit depth : 8 bits
Scan type : Progressive
Bits/(Pixel*Frame) : 0.183
Stream size : 1.21 GiB (86%)
Language : English
Default : Yes
Forced : No
Color primaries : BT.709
Transfer characteristics : BT.709
Matrix coefficients : BT.709

Audio #1
ID : 2
Format : AC-3
Format/Info : Audio Coding 3
Mode extension : CM (complete main)
Format settings, Endianness : Big
Codec ID : A_AC3
Duration : 42mn 59s
Bit rate mode : Constant
Bit rate : 192 Kbps
Channel(s) : 2 channels
Channel positions : Front: L R
Sampling rate : 48.0 KHz
Bit depth : 16 bits
Compression mode : Lossy
Stream size : 59.0 MiB (4%)
Title : Профессиональный (многоголосый, закадровый) FOX Life
Language : Russian
Default : Yes
Forced : No

Audio #2
ID : 3
Format : AC-3
Format/Info : Audio Coding 3
Mode extension : CM (complete main)
Format settings, Endianness : Big
Codec ID : A_AC3
Duration : 42mn 59s
Bit rate mode : Constant
Bit rate : 384 Kbps
Channel(s) : 6 channels
Channel positions : Front: L C R, Side: L R, LFE
Sampling rate : 48.0 KHz
Bit depth : 16 bits
Compression mode : Lossy
Stream size : 118 MiB (8%)
Title : Оригинал
Language : English
Default : No
Forced : No



   Похожие торренты   Торрент   Размер 
В этой теме нет новых непрочитанных сообщений. Касл / Castle [S03] (2010-2011) WEB-DL 720p от LostFilm

8 | 8

35.58 ГБ

В этой теме нет новых непрочитанных сообщений. Касл / Castle [S01-03] (2009-2011) WEB-DLRip-AVC 720p

49 | 67

90.95 ГБ

В этой теме нет новых непрочитанных сообщений. Касл / Castle [S04] (2011) WEB-DLRip | P LostFilm

177 | 58

9.64 ГБ

В этой теме нет новых непрочитанных сообщений. Касл / Castle [S03] (2010-2011) HDTVRip от LostFilm

208 | 51

10.09 ГБ

В этой теме нет новых непрочитанных сообщений. Касл / Castle [S04] (2011-2012) WEB-DLRip-AVC l DD5.1 l LostFilm

27 | 11

20.36 ГБ

В этой теме нет новых непрочитанных сообщений. Касл / Castle [04x01-14 из 23] (2011) WEB-DLRip | P NovaFilm

0 | 4

5.47 ГБ

В этой теме нет новых непрочитанных сообщений. Касл / Castle [08х01-05 из 23] WEB-DL 720p | LostFilm

58 | 129

6.29 ГБ




Вы не можете начинать темы
Вы не можете отвечать на сообщения
Вы не можете редактировать свои сообщения
Вы не можете удалять свои сообщения
Вы не можете добавлять вложения

Перейти:  
Для Мосгорсуда, Роскомнадзора и рекламодателей: mosgorsud-torrent[собачка]yandex.ru
 Вход
ppkBB3cker v.2 © 2008-2014 @ PPK
[ Time : 0.037s | 15 Queries | GZIP : On ]

Торрент трекер RUTOR.IN, Не можете зайти на rutor.org? Какой новый адрес рутор? Какое зеркало рутор? Не работает rutor.org и зеркала? Тогда наш торрент специально для вас. Rutor.in неофициальное зеркало rutor. В случае если у Вас заблокирован rutor или вдруг Вы не можете на него зайти, то Вы без труда сможете скачать бесплатно и без рекламы последние новинки кино, игр, сериалов и прочего у нас, на Rutor.in. Не нужно использовать прокси, чтобы зайти на рутор, достаточно воспользоваться нашим ресурсом. Все новые фильмы, игры, сериалы, книги и музыка за 2013 и 2014 годы через торрент бесплатно. Скачивайте фильмы в хорошем качестве, игры для пк, xbox, playstation без регистрации. У нас вы найдете новые Зарубежные сериалы и Русские сериалы 2013, 2014, 2015 годов. Оставайтесь с нами, качайте любимые фильмы, игры, сериалы, книги и музыку.