img image001 image001 image001 image001 image001 image001 image001 image001 image001 image001 image001 image001 image001 image001 image001

Planets Sun Sun Sun
Статистика раздачи
Автор: Снежана | Размер: 37.34 ГБ | Добавлен: 25 июл 2013
Раздают: 60    Качают: 33
Скачать торрент
Скачать торрент
Описание торрента

СообщениеДобавлено: 25 июл 2013 

#77

Информация о фильме
Название: Светлячок
Оригинальное название: Firefly
Год выхода: 2002
Жанр: фантастика, боевик, драма, приключения, ...
Режиссер: Джосс Уидон, Верн Джиллам, Тим Минеар
В ролях: Натан Филлион, Джина Торрес, Алан Тьюдик, Морена Баккарин, Адам Болдуин, Джуэл Стэйт, Шон Маэр, Саммер Глау, Рон Гласс, Кристина Хендрикс ...

О фильме:
Капитан Малькольм Рейнольдс — закаленный в боях ветеран галактической гражданской войны, сражавшийся не на той (проигравшей) стороне, зарабатывает на жизнь мелкими преступлениями и перевозит грузы на своем корабле «Серенити». Он возглавляет небольшую разношерстную команду, которая порядком смахивает на самую обычную семью — ее члены вечно ссорятся, не соблюдают дисциплину, но никогда не предадут своего капитана и пойдут за ним хоть на край света.



Страна: США
Продолжительность: ~40m
Перевод: Профессиональный многоголосый закадровый (Тайкун)

Файл
Кодек: h.264
Качество: BDRip 720p
Видео: MPEG4 Video (H264) 1280x720 23.976fps ~8500Kbps High@L4.1
Звук: Dolby AC3 48000Hz 6ch 448Kbps

General
Unique ID : 216307664899970031524236474650504440504 (0xA2BB57456D8041229C686F7C6DC3AAB8)
Complete name :
Format : Matroska
Format version : Version 1
File size : 2.56 GiB
Duration : 44mn 4s
Overall bit rate : 8 314 Kbps
Movie name : "Firefly" (2002) - Episode 14: Objects in Space
Encoded date : UTC 2010-01-24 23:47:54
Writing application : mkvmerge v2.2.0 ('Turn It On Again') built on Mar 4 2008 12:58:26
Writing library : libebml v0.7.7 + libmatroska v0.8.1
Attachment : Yes / Yes / Yes

Video
ID : 1
Format : AVC
Format/Info : Advanced Video Codec
Format profile : High@L4.1
Format settings, CABAC : Yes
Format settings, ReFrames : 7 frames
Codec ID : V_MPEG4/ISO/AVC
Duration : 44mn 4s
Bit rate : 7 862 Kbps
Width : 1 280 pixels
Height : 720 pixels
Display aspect ratio : 16:9
Frame rate mode : Constant
Frame rate : 23.976 fps
Color space : YUV
Chroma subsampling : 4:2:0
Bit depth : 8 bits
Scan type : Progressive
Bits/(Pixel*Frame) : 0.356
Stream size : 2.37 GiB (93%)
Title : ViDEOx14 - Objects in Space
Writing library : x264 core 65 r1057M 5f8a149
Encoding settings : cabac=1 / ref=7 / deblock=1:-3:-3 / analyse=0x3:0x133 / me=umh / subme=9 / psy_rd=0.8:0.8 / mixed_ref=1 / me_range=24 / chroma_me=1 / trellis=2 / 8x8dct=1 / cqm=2 / deadzone=21,11 / chroma_qp_offset=-4 / threads=3 / nr=0 / decimate=1 / mbaff=0 / bframes=3 / b_pyramid=1 / b_adapt=2 / b_bias=0 / direct=3 / wpredb=1 / keyint=250 / keyint_min=25 / scenecut=40(pre) / rc=2pass / bitrate=7862 / ratetol=1.0 / qcomp=0.60 / qpmin=10 / qpmax=35 / qpstep=4 / cplxblur=20.0 / qblur=0.5 / ip_ratio=1.40 / pb_ratio=1.30 / aq=1:0.65
Language : English
Default : Yes
Forced : No

Audio
ID : 2
Format : AC-3
Format/Info : Audio Coding 3
Mode extension : CM (complete main)
Format settings, Endianness : Big
Codec ID : A_AC3
Duration : 44mn 4s
Bit rate mode : Constant
Bit rate : 448 Kbps
Channel(s) : 6 channels
Channel positions : Front: L C R, Side: L R, LFE
Sampling rate : 48.0 KHz
Bit depth : 16 bits
Compression mode : Lossy
Stream size : 141 MiB (5%)
Title : AC3-5.1-448kbps
Language : Russian
Default : Yes
Forced : No



   Похожие торренты   Торрент   Размер 
В этой теме нет новых непрочитанных сообщений. Светлячок / Firefly [S01] (2002) BDRip 720p от MediaClub | VHS, Tycoon, Сербин

273 | 133

31.92 ГБ

В этой теме нет новых непрочитанных сообщений. Светлячок / Firefly [S01] (2002) BDRip 720p HEVC (x265) | Кириллица, Tycoon, VHS, Сербин, Чернышев, ТВ3

186 | 34

4.3 ГБ

В этой теме нет новых непрочитанных сообщений. Светлячок / Firefly [S01] (2002) BDRip

639 | 57

5.43 ГБ

В этой теме нет новых непрочитанных сообщений. Светлячок / Firefly [S01] (2002) BDRip от HQ-ViDEO

82 | 60

12.96 ГБ

В этой теме нет новых непрочитанных сообщений. Светлячок / Firefly [S01] (2002) HDRip | A

181 | 27

5.97 ГБ

В этой теме нет новых непрочитанных сообщений. Светлячок / Firefly [S01] (2002) DVDRip

248 | 32

8.83 ГБ

В этой теме нет новых непрочитанных сообщений. Светлячок / Firefly [S01] (2002) BD-Remux

11 | 6

110.88 ГБ




Вы не можете начинать темы
Вы не можете отвечать на сообщения
Вы не можете редактировать свои сообщения
Вы не можете удалять свои сообщения
Вы не можете добавлять вложения

Перейти:  
Для Мосгорсуда, Роскомнадзора и рекламодателей: mosgorsud-torrent[собачка]yandex.ru
 Вход
ppkBB3cker v.2 © 2008-2014 @ PPK
[ Time : 0.075s | 16 Queries | GZIP : Off ]

Торрент трекер RUTOR.IN, Не можете зайти на rutor.org? Какой новый адрес рутор? Какое зеркало рутор? Не работает rutor.org и зеркала? Тогда наш торрент специально для вас. Rutor.in неофициальное зеркало rutor. В случае если у Вас заблокирован rutor или вдруг Вы не можете на него зайти, то Вы без труда сможете скачать бесплатно и без рекламы последние новинки кино, игр, сериалов и прочего у нас, на Rutor.in. Не нужно использовать прокси, чтобы зайти на рутор, достаточно воспользоваться нашим ресурсом. Все новые фильмы, игры, сериалы, книги и музыка за 2013 и 2014 годы через торрент бесплатно. Скачивайте фильмы в хорошем качестве, игры для пк, xbox, playstation без регистрации. У нас вы найдете новые Зарубежные сериалы и Русские сериалы 2013, 2014, 2015 годов. Оставайтесь с нами, качайте любимые фильмы, игры, сериалы, книги и музыку.
cron