img image001 image001 image001 image001 image001 image001 image001 image001 image001 image001 image001 image001 image001 image001 image001

Planets Sun Sun Sun
Статистика раздачи
Автор: Снежана | Размер: 9.72 ГБ | Добавлен: 25 июл 2013
Раздают: 63    Качают: 9
Скачать торрент
Скачать торрент
Описание торрента

СообщениеДобавлено: 25 июл 2013 

#77

Название: Подпольная империя
Оригинальное название: Boardwalk Empire
Год выпуска: 2012
Страна: США | HBO
Жанр: драма, криминальный
Продолжительность: 12 х ~ 00:55:00
Перевод: Авторский (одноголосый, закадровый) | Ю. Сербин
Субтитры: Отсутствуют
Режиссер: Тимоти Ван Паттен, Аллен Култер

В ролях: Стив Бушеми, Майкл Питт, Келли Макдоналд, Майкл Шеннон, Ши Уигхэм, Алекса Палладино, Майкл Стулбарг, Стивен Грэм, Винсент Пьяцца, Джек Хьюстон и др.

Описание: 1920 год. Через несколько часов Атлантик-Сити — столица развлечений и порока, как и вся Америка, вступит в эпоху «Сухого закона». Енох «Наки» Томпсон, днем — городской казначей, а ночью — хитроумный гангстер со связями на самом «верху», решает воспользоваться ситуацией и получить баснословные прибыли на подпольной торговле алкоголем. Однако не он один жаждет обогатиться на новом промысле…



Качество: HDTVRip
Видео: XviD, ~ 1804 Кбит/с, 720x400
Аудио: Русский, английский (АС3, 2 ch, 192 Кбит/с)

Полный сезон!

01 - Обещание (Resolution)
02 - Спагетти и Кофе (Spaghetti and Coffee)
03 - Кость для Тунца (Bone for Tuna)
04 - Мальчик-колокольчик (Blue Bell Boy)
05 - Ты удивишься (You'd Be Surprised)
06 - Гинг-гэнг-гули (Ging Gang Goolie)
07 - Праздничный костюм (Sunday Best)
08 - Пони (The Pony)
09 - Блаженны нищие (The Milkmaid's Lot)
10 - Уведи у вора... (A Man, a Plan...)
11. - Два Самозванца (Two Imposters)
12. - Margate Sands
Формат : AVI
Формат/Информация : Audio Video Interleave
Размер файла : 757 Мбайт
Продолжительность : 59 м.
Общий поток : 1768 Кбит/сек
Программа кодирования : VirtualDubMod 1.5.10.2 (build 2542/release)
Библиотека кодирования : VirtualDubMod build 2542/release

Видео
Идентификатор : 0
Формат : MPEG-4 Visual
Профиль формата : Advanced Simple@L5
Параметр BVOP формата : 2
Параметр QPel формата : Нет
Параметр GMC формата : Без точки перехода
Параметр матрицы формата : Default (H.263)
Режим смешивания : Сжатый битовый поток
Идентификатор кодека : XVID
Идентификатор кодека/Подсказка : XviD
Продолжительность : 59 м.
Битрейт : 1369 Кбит/сек
Ширина : 720 пикс.
Высота : 400 пикс.
Соотношение сторон : 16:9
Частота кадров : 23,976 кадр/сек
Цветовое пространство : YUV
Подвыборка цветности : 4:2:0
Битовая глубина : 8 бит
Тип развёртки : Прогрессивная
Метод сжатия : С потерями
Бит/(Пиксели*Кадры) : 0.198
Размер потока : 586 Мбайт (77%)
Библиотека кодирования : XviD 64

Аудио #1
Идентификатор : 1
Формат : AC-3
Формат/Информация : Audio Coding 3
Расширение режима : CM (complete main)
Идентификатор кодека : 2000
Продолжительность : 59 м.
Вид битрейта : Постоянный
Битрейт : 192 Кбит/сек
Каналы : 2 канала
Расположение каналов : Front: L R
Частота : 48,0 КГц
Битовая глубина : 16 бит
Метод сжатия : С потерями
Размер потока : 82,2 Мбайт (11%)
Выравнивание : Разделение по промежуткам
Продолжительность промежутка : 42 мс. (1,00 видеокадр)
Время предзагрузки промежутка : 500 ms

Аудио #2
Идентификатор : 2
Формат : AC-3
Формат/Информация : Audio Coding 3
Расширение режима : CM (complete main)
Идентификатор кодека : 2000
Продолжительность : 59 м.
Вид битрейта : Постоянный
Битрейт : 192 Кбит/сек
Каналы : 2 канала
Расположение каналов : Front: L R
Частота : 48,0 КГц
Битовая глубина : 16 бит
Метод сжатия : С потерями
Размер потока : 82,2 Мбайт (11%)
Выравнивание : Разделение по промежуткам
Продолжительность промежутка : 42 мс. (1,00 видеокадр)
Время предзагрузки промежутка : 500 ms




   Похожие торренты   Торрент   Размер 
В этой теме нет новых непрочитанных сообщений. Подпольная империя / Преступная империя / Boardwalk Empire [S01-03] (2010-2012) HDTVRip | Ю. Сербин

1056 | 686

23.72 ГБ

В этой теме нет новых непрочитанных сообщений. Подпольная империя / Преступная империя / Империя порока / Boardwalk Empire [S02] (2011) HDTVRip 720p | Сербин

66 | 31

26.24 ГБ

В этой теме нет новых непрочитанных сообщений. Подпольная империя / Преступная империя / Boardwalk Empire [S04] (2013) HDTVRip | Ю. Сербин

1282 | 155

6.82 ГБ

В этой теме нет новых непрочитанных сообщений. Подпольная Империя / Преступная империя / Boardwalk Empire [05x01-02] (2014) HDTVRip 720p от HDClub | Amedia, Сербин

47 | 32

5.18 ГБ

В этой теме нет новых непрочитанных сообщений. Подпольная Империя / Преступная империя / Boardwalk Empire [05x01-03] (2014) HDTVRip 720p от HDClub | Amedia, Сербин

116 | 35

7.43 ГБ

В этой теме нет новых непрочитанных сообщений. Подпольная Империя / Преступная империя / Boardwalk Empire [05x01-04] (2014) HDTVRip 720p от HDClub | Amedia, Сербин

101 | 54

9.75 ГБ

В этой теме нет новых непрочитанных сообщений. Подпольная империя / Boardwalk Empire [S02] (2011) HDTVRip | Сербин

195 | 89

7.95 ГБ




Вы не можете начинать темы
Вы не можете отвечать на сообщения
Вы не можете редактировать свои сообщения
Вы не можете удалять свои сообщения
Вы не можете добавлять вложения

Перейти:  
Для Мосгорсуда, Роскомнадзора и рекламодателей: mosgorsud-torrent[собачка]yandex.ru
 Вход
ppkBB3cker v.2 © 2008-2014 @ PPK
[ Time : 0.538s | 16 Queries | GZIP : On ]

Торрент трекер RUTOR.IN, Не можете зайти на rutor.org? Какой новый адрес рутор? Какое зеркало рутор? Не работает rutor.org и зеркала? Тогда наш торрент специально для вас. Rutor.in неофициальное зеркало rutor. В случае если у Вас заблокирован rutor или вдруг Вы не можете на него зайти, то Вы без труда сможете скачать бесплатно и без рекламы последние новинки кино, игр, сериалов и прочего у нас, на Rutor.in. Не нужно использовать прокси, чтобы зайти на рутор, достаточно воспользоваться нашим ресурсом. Все новые фильмы, игры, сериалы, книги и музыка за 2013 и 2014 годы через торрент бесплатно. Скачивайте фильмы в хорошем качестве, игры для пк, xbox, playstation без регистрации. У нас вы найдете новые Зарубежные сериалы и Русские сериалы 2013, 2014, 2015 годов. Оставайтесь с нами, качайте любимые фильмы, игры, сериалы, книги и музыку.
cron