img image001 image001 image001 image001 image001 image001 image001 image001 image001 image001 image001 image001 image001 image001 image001

Planets Sun Sun Sun
Статистика раздачи
Автор: Снежана | Размер: 1.82 ГБ | Добавлен: 25 июл 2013
Раздают: 1    Качают: 2
Скачать торрент
Скачать торрент
Описание торрента

СообщениеДобавлено: 25 июл 2013 

#77

Название: Ищейка
Оригинальное название: The Closer
Год выпуска: 2010
Страна: США
Жанр: детектив, драма
Продолжительность: 05 х ~ 00:45:00
Перевод: Любительский (многоголосый, закадровый) - FreeVisionTV
Субтитры: нет
Режиссер: Майкл М. Робин, Эрвин Браун, Элоди Кин и другие

В ролях: Кира Седжвик, Дж.К. Симмонс, Кори Рейнольдс, Роберт Госсетт, Дж. У. Бейли, Джон Тенни, Энтони Джон Дэнисон, Филлип П. Кин, Майкл Пол Чан, Рэймонд Крус и другие.

Описание: Сериал повествует о суровых буднях женщины-детектива, прошедшей выучку в ЦРУ. Действие фильма разворачивается в Лос-Анджелесе. Задача нового руководителя отдела по борьбе с особо тяжкими преступлениями Бренды Ли Джонсон — расследование убийств. Её неординарная личность и своеобразный подход к работе шокируют коллег — мужчин. Ради установления истины она готова пойти на любые жертвы.



Перевод: Z23, nata73, wdata
Озвучка: Stacy, FonMekk, MiST, Ceazar, Тимофей Куликов
Работа со звуком: FonMekk
Рип видео: Ceazar

Качество: TVRip
Формат: AVI
Видео кодек: XviD
Аудио кодек:
Видео: XviD MPEG-4, 624x320 (11 серия), 624х352 1048 kbps, 25 fps, 0.21 bit/pixel
Аудио: MPEG Layer 3, 44.100 kHz, 2 ch, 192.00 kbps

11 Старые деньги / Old Money
12 Особо тяжкое преступление / High Crimes
13 Живое доказательство (часть 1) / Living Proof (Part 1)
14 Живое доказательство (часть 2) / Living Proof (Part 2)
15 Гадкие игры / An Ugly Game
Формат : AVI
Формат/Информация : Audio Video Interleave
Размер файла : 370 Мбайт
Продолжительность : 42 м.
Общий поток : 1230 Кбит/сек
Программа кодирования : Some super fast AVI muxer
Библиотека кодирования : VirtualDub build 32817/release

Видео
Идентификатор : 0
Формат : MPEG-4 Visual
Профиль формата : Advanced Simple@L5
Параметр BVOP формата : 1
Параметр QPel формата : Нет
Параметр GMC формата : Без точки перехода
Параметр матрицы формата : Default (H.263)
Идентификатор кодека : XVID
Идентификатор кодека/Подсказка : XviD
Продолжительность : 42 м.
Битрейт : 1028 Кбит/сек
Ширина : 624 пикс.
Высота : 352 пикс.
Соотношение сторон : 16:9
Частота кадров : 23,976 кадр/сек
Цветовое пространство : YUV
Подвыборка цветности : 4:2:0
Битовая глубина : 8 бит
Тип развёртки : Прогрессивная
Метод сжатия : С потерями
Бит/(Пиксели*Кадры) : 0.195
Размер потока : 309 Мбайт (84%)
Библиотека кодирования : XviD 1.2.1 (UTC 2008-12-04)

Аудио
Идентификатор : 1
Формат : MPEG Audio
Версия формата : Version 1
Профиль формата : Layer 3
Режим : Joint stereo
Идентификатор кодека : 55
Идентификатор кодека/Подсказка : MP3
Продолжительность : 42 м.
Вид битрейта : Постоянный
Битрейт : 192 Кбит/сек
Каналы : 2 канала
Частота : 44,1 КГц
Метод сжатия : С потерями
Размер потока : 57,7 Мбайт (16%)
Выравнивание : Разделение по промежуткам
Продолжительность промежутка : 42 мс. (1,00 видеокадр)
Время предзагрузки промежутка : 500 ms



Релиз от: FreeVisionTV



   Похожие торренты   Торрент   Размер 
В этой теме нет новых непрочитанных сообщений. Ищейка / The Closer [S06] (2010) WEB-DL 720p | P

0 | 0

20.91 ГБ

В этой теме нет новых непрочитанных сообщений. Ищейка / The closer [S06] (2010) DVDRip

0 | 1

6.59 ГБ

В этой теме нет новых непрочитанных сообщений. Ищейка / The Closer [S05] (2009) DVDRip | P

0 | 4

5.7 ГБ

В этой теме нет новых непрочитанных сообщений. Ищейка / The Closer [S07] (2012) HDTVRip | L1

6 | 2

11.06 ГБ

В этой теме нет новых непрочитанных сообщений. Ищейка / The closer [S01] (2005) DVDRip

200 | 8

4.75 ГБ

В этой теме нет новых непрочитанных сообщений. Ищейка [S03] / The Closer (2007) DVDRip

18 | 13

5.69 ГБ

В этой теме нет новых непрочитанных сообщений. Ищейка [S04] / The Closer (2008) SATRip

18 | 3

5.08 ГБ




Вы не можете начинать темы
Вы не можете отвечать на сообщения
Вы не можете редактировать свои сообщения
Вы не можете удалять свои сообщения
Вы не можете добавлять вложения

Перейти:  
Для Мосгорсуда, Роскомнадзора и рекламодателей: mosgorsud-torrent[собачка]yandex.ru
 Вход
ppkBB3cker v.2 © 2008-2014 @ PPK
[ Time : 0.057s | 15 Queries | GZIP : Off ]

Торрент трекер RUTOR.IN, Не можете зайти на rutor.org? Какой новый адрес рутор? Какое зеркало рутор? Не работает rutor.org и зеркала? Тогда наш торрент специально для вас. Rutor.in неофициальное зеркало rutor. В случае если у Вас заблокирован rutor или вдруг Вы не можете на него зайти, то Вы без труда сможете скачать бесплатно и без рекламы последние новинки кино, игр, сериалов и прочего у нас, на Rutor.in. Не нужно использовать прокси, чтобы зайти на рутор, достаточно воспользоваться нашим ресурсом. Все новые фильмы, игры, сериалы, книги и музыка за 2013 и 2014 годы через торрент бесплатно. Скачивайте фильмы в хорошем качестве, игры для пк, xbox, playstation без регистрации. У нас вы найдете новые Зарубежные сериалы и Русские сериалы 2013, 2014, 2015 годов. Оставайтесь с нами, качайте любимые фильмы, игры, сериалы, книги и музыку.
cron