img image001 image001 image001 image001 image001 image001 image001 image001 image001 image001 image001 image001 image001 image001 image001

Planets Sun Sun Sun
Статистика раздачи
Автор: Снежана | Размер: 11.06 ГБ | Добавлен: 25 июл 2013
Раздают: 6    Качают: 2
Скачать торрент
Скачать торрент
Описание торрента

СообщениеДобавлено: 25 июл 2013 

#77

Название: Ищейка
Оригинальное название: The Closer
Год выпуска: 2012
Страна: США
Жанр: детектив, драма
Продолжительность: 21 х ~ 00:45:00
Перевод: Любительский одноголосый закадровый - andrejshapal
Субтитры: нет
Режиссер: Майкл М. Робин, Эрвин Браун, Элоди Кин и другие

В ролях: Кира Седжвик, Дж.К. Симмонс, Кори Рейнольдс, Роберт Госсетт, Дж. У. Бейли, Джон Тенни, Энтони Джон Дэнисон, Филлип П. Кин, Майкл Пол Чан, Рэймонд Крус и другие.

Описание: Сериал повествует о суровых буднях женщины-детектива, прошедшей выучку в ЦРУ. Действие фильма разворачивается в Лос-Анджелесе. Задача нового руководителя отдела по борьбе с особо тяжкими преступлениями Бренды Ли Джонсон — расследование убийств. Её неординарная личность и своеобразный подход к работе шокируют коллег — мужчин. Ради установления истины она готова пойти на любые жертвы.



Перевод: Subtitr (Z23, _HighFlyer)
Озвучка: andrejshapal



Качество: HDTVRip
Формат: AVI
Видео кодек: XviD
Аудио кодек: MP3
Видео: XviD, 624x352, 23.976 fps, ~ 1601 kbps, 0.303 bit/pixel (1, 3 серия), XviD, 720x400 - 720x404, 23.976 fps, 1595 kbps, 0.231 bit/pixel (остальные)
Аудио Rus: MP3, 48.0 KHz, 2 ch, 128 kbps
Аудио Eng: MP3, 48.0 KHz, 2 ch, 128 kbps

01. Причина неизвестна / Unknown Trouble
02. Рецидивист / Repeat Offender
03. К работе с любовью / To Serve with Love
04. Под контролем / Under Control
05. Прости нам прегрешения наши / Forgive Us Our Trespasses
06. Улучшение жилищных условий / Home Improvement
07. Семейное дело / A Family Affair
08. Смертный приговор / Death Warrant
09. Гвоздь программы / Star Turn
10. По горячим следам / Fresh Pursuit
11. Неизбежное зло / Necessary Evil
12. У вас есть право продолжать веселиться / You Have the Right to Remain Jolly
13. Семейное дело / Relative Matters
14. Дорожное препятствие / Road Block
15. Тайный партнёр / Silent Partner
16. Враждебно настроенный свидетель / Hostile Witness
17. Золото дураков / Fool’s Gold
18. Чудовище от медицины / Drug Fiend
19. Последнее Причастие / Last Rites
20. Вооруженный отпор / Armed Response
21. Последнее слово / The Last Word
Формат : AVI
Формат/Информация : Audio Video Interleave
Размер файла : 544 Мбайт
Продолжительность : 48 м.
Общий поток : 1568 Кбит/сек
Название фильма : Ищейка (7 сезон: 21 серия) | Последнее слово / The Last Word
Программа кодирования : VirtualDubMod 1.5.10.2 (build 2540/release)
Библиотека кодирования : VirtualDubMod build 2540/release

Видео
Идентификатор : 0
Формат : MPEG-4 Visual
Профиль формата : Advanced Simple@L5
Параметр BVOP формата : 2
Параметр QPel формата : Нет
Параметр GMC формата : Без точки перехода
Параметр матрицы формата : Default (MPEG)
Режим смешивания : Сжатый битовый поток
Идентификатор кодека : XVID
Идентификатор кодека/Подсказка : XviD
Продолжительность : 48 м.
Битрейт : 1298 Кбит/сек
Ширина : 720 пикс.
Высота : 400 пикс.
Соотношение сторон : 16:9
Частота кадров : 23,976 кадр/сек
Цветовое пространство : YUV
Подвыборка цветности : 4:2:0
Битовая глубина : 8 бит
Тип развёртки : Прогрессивная
Метод сжатия : С потерями
Бит/(Пиксели*Кадры) : 0.188
Размер потока : 451 Мбайт (83%)
Библиотека кодирования : XviD 64

Аудио #1
Идентификатор : 1
Формат : MPEG Audio
Версия формата : Version 1
Профиль формата : Layer 3
Режим : Joint stereo
Расширение режима : MS Stereo
Идентификатор кодека : 55
Идентификатор кодека/Подсказка : MP3
Продолжительность : 48 м.
Вид битрейта : Постоянный
Битрейт : 128 Кбит/сек
Каналы : 2 канала
Частота : 48,0 КГц
Метод сжатия : С потерями
Размер потока : 44,4 Мбайт (8%)
Выравнивание : Соединение по промежуткам
Продолжительность промежутка : 42 мс. (1,00 видеокадр)
Время предзагрузки промежутка : 504 ms

Аудио #2
Идентификатор : 2
Формат : MPEG Audio
Версия формата : Version 1
Профиль формата : Layer 3
Режим : Joint stereo
Расширение режима : MS Stereo
Идентификатор кодека : 55
Идентификатор кодека/Подсказка : MP3
Продолжительность : 48 м.
Вид битрейта : Постоянный
Битрейт : 128 Кбит/сек
Каналы : 2 канала
Частота : 48,0 КГц
Метод сжатия : С потерями
Размер потока : 44,4 Мбайт (8%)
Выравнивание : Разделение по промежуткам
Продолжительность промежутка : 42 мс. (1,00 видеокадр)
Время предзагрузки промежутка : 500 ms




Релиз от:



   Похожие торренты   Торрент   Размер 
В этой теме нет новых непрочитанных сообщений. Ищейка / The closer [S07] (2012) WEB-DLRip | Diva Universal

10 | 4

9.24 ГБ

В этой теме нет новых непрочитанных сообщений. Ищейка / The Closer [S01-07] (2005–2012) WEB-DLRip, DVDRip | Diva Universal, ДТВ

50 | 90

46.21 ГБ

В этой теме нет новых непрочитанных сообщений. Ищейка / The Closer [S05] (2009) DVDRip | P

0 | 4

5.7 ГБ

В этой теме нет новых непрочитанных сообщений. Ищейка [S04] / The Closer (2008) SATRip

18 | 3

5.08 ГБ

В этой теме нет новых непрочитанных сообщений. Ищейка / The closer [S01] (2005) DVDRip

200 | 8

4.75 ГБ

В этой теме нет новых непрочитанных сообщений. Ищейка [S03] / The Closer (2007) DVDRip

18 | 13

5.69 ГБ

В этой теме нет новых непрочитанных сообщений. Ищейка / The closer [S06] (2010) DVDRip

0 | 1

6.59 ГБ




Вы не можете начинать темы
Вы не можете отвечать на сообщения
Вы не можете редактировать свои сообщения
Вы не можете удалять свои сообщения
Вы не можете добавлять вложения

Перейти:  
Для Мосгорсуда, Роскомнадзора и рекламодателей: mosgorsud-torrent[собачка]yandex.ru
 Вход
ppkBB3cker v.2 © 2008-2014 @ PPK
[ Time : 0.060s | 14 Queries | GZIP : Off ]

Торрент трекер RUTOR.IN, Не можете зайти на rutor.org? Какой новый адрес рутор? Какое зеркало рутор? Не работает rutor.org и зеркала? Тогда наш торрент специально для вас. Rutor.in неофициальное зеркало rutor. В случае если у Вас заблокирован rutor или вдруг Вы не можете на него зайти, то Вы без труда сможете скачать бесплатно и без рекламы последние новинки кино, игр, сериалов и прочего у нас, на Rutor.in. Не нужно использовать прокси, чтобы зайти на рутор, достаточно воспользоваться нашим ресурсом. Все новые фильмы, игры, сериалы, книги и музыка за 2013 и 2014 годы через торрент бесплатно. Скачивайте фильмы в хорошем качестве, игры для пк, xbox, playstation без регистрации. У нас вы найдете новые Зарубежные сериалы и Русские сериалы 2013, 2014, 2015 годов. Оставайтесь с нами, качайте любимые фильмы, игры, сериалы, книги и музыку.