img image001 image001 image001 image001 image001 image001 image001 image001 image001 image001 image001 image001 image001 image001 image001

Planets Sun Sun Sun
Статистика раздачи
Автор: Снежана | Размер: 5.7 ГБ | Добавлен: 25 июл 2013
Раздают: 0    Качают: 4
Скачать торрент
Скачать торрент
Описание торрента

СообщениеДобавлено: 25 июл 2013 

#77

Название: Ищейка
Оригинальное название: The Closer
Год выпуска: 2009
Страна: США
Жанр: детектив, драма
Продолжительность: 15 х ~ 00:45:00
Перевод: профессиональный многоголосый закадровый - Diva Universal Russia
Субтитры: нет
Режиссер: Майкл М. Робин, Эрвин Браун, Элоди Кин и другие

В ролях: Кира Седжвик, Дж.К. Симмонс, Кори Рейнольдс, Роберт Госсетт, Дж. У. Бейли, Джон Тенни, Энтони Джон Дэнисон, Филлип П. Кин, Майкл Пол Чан, Рэймонд Крус и другие.

Описание: Сериал повествует о суровых буднях женщины-детектива, прошедшей выучку в ЦРУ. Действие фильма разворачивается в Лос-Анджелесе. Задача нового руководителя отдела по борьбе с особо тяжкими преступлениями Бренды Ли Джонсон — расследование убийств. Её неординарная личность и своеобразный подход к работе шокируют коллег — мужчин. Ради установления истины она готова пойти на любые жертвы.



Дополнительно: Премьерный показ на канале Diva Universal отследил Faker020285
При создании данной раздачи использовались видеоряд и оригинальная английская аудиодорожка из немецкого DVDRip.
За информацию о зарубежном интернет-ресурсе с DVDRip благодарим spec45!



Качество: DVDRip
Формат: AVI
Видео кодек: XviD
Аудио кодек: MP3
Видео: XviD, 624х352 (16:9), 23.976 fps, ~990 kbps, 0.188 bit/pixel
Аудио Rus: MP3, 48.0 KHz, 2 ch, 128 kbps
Аудио Eng: MP3, 48.0 KHz, 2 ch, 128 kbps

5x01Products of Discovery
5x02Кровавые Деньги / Blood Money
5x03Бюрократия / Red Tape
5x04Walking Back the Cat
5x05Half Load
5x06Отстучал / Tapped Out
5x07Strike Three
5x08Елисейские поля / Elysian Fields
5x09Кража личных данных / Identity Theft
5x10Пахнет убийством / Smells Like Murder
5x11Материнский инстинкт / Maternal Instincts
5x12Waivers of Extradition
5x13Жизнь / The Life
5x14Make Over
5x15Рука покойника / Dead Man's Hand
Общее
Полное имя : C:The Closer 5 DivaThe Closer 05-01 Diva.avi
Формат : AVI
Формат/Информация : Audio Video Interleave
Размер файла : 389 Мбайт
Продолжительность : 43 м.
Общий поток : 1261 Кбит/сек
Программа кодирования : VirtualDubModRus 1.5.10.2 (build 2540/release)
Библиотека кодирования : VirtualDubMod build 2540/release

Видео
Идентификатор : 0
Формат : MPEG-4 Visual
Профиль формата : Advanced Simple@L5
Параметр BVOP формата : 1
Параметр QPel формата : Нет
Параметр GMC формата : Без точки перехода
Параметр матрицы формата : Default (MPEG)
Режим смешивания : Сжатый битовый поток
Идентификатор кодека : XVID
Продолжительность : 43 м.
Битрейт : 991 Кбит/сек
Ширина : 624 пикс.
Высота : 352 пикс.
Соотношение сторон : 16:9
Частота кадров : 23,976 кадр/сек
Цветовое пространство : YUV
Подвыборка цветности : 4:2:0
Битовая глубина : 8 бит
Тип развёртки : Прогрессивная
Бит/(Пиксели*Кадры) : 0.188
Размер потока : 306 Мбайт (79%)
Библиотека кодирования : XviD 1.2.1 (UTC 2008-12-04)

Аудио #1
Идентификатор : 1
Формат : MPEG Audio
Версия формата : Version 1
Профиль формата : Layer 3
Режим : Joint stereo
Расширение режима : MS Stereo
Идентификатор кодека : MP3
Продолжительность : 43 м.
Вид битрейта : Постоянный
Битрейт : 128 Кбит/сек
Каналы : 2 канала
Частота : 48,0 КГц
Размер потока : 39,5 Мбайт (10%)
Выравнивание : Разделение по промежуткам
Продолжительность промежутка : 42 мс. (1,00 видеокадр)
Время предзагрузки промежутка : 500 ms

Аудио #2
Идентификатор : 2
Формат : MPEG Audio
Версия формата : Version 1
Профиль формата : Layer 3
Режим : Joint stereo
Расширение режима : MS Stereo
Идентификатор кодека : MP3
Продолжительность : 43 м.
Вид битрейта : Постоянный
Битрейт : 128 Кбит/сек
Каналы : 2 канала
Частота : 48,0 КГц
Размер потока : 39,5 Мбайт (10%)
Выравнивание : Разделение по промежуткам
Продолжительность промежутка : 42 мс. (1,00 видеокадр)
Время предзагрузки промежутка : 500 ms






   Похожие торренты   Торрент   Размер 
В этой теме нет новых непрочитанных сообщений. Ищейка / The closer [S06] (2010) DVDRip

0 | 1

6.59 ГБ

В этой теме нет новых непрочитанных сообщений. Ищейка / The closer [S01] (2005) DVDRip

200 | 8

4.75 ГБ

В этой теме нет новых непрочитанных сообщений. Ищейка [S03] / The Closer (2007) DVDRip

18 | 13

5.69 ГБ

В этой теме нет новых непрочитанных сообщений. Ищейка / The Closer [S01-07] (2005–2012) WEB-DLRip, DVDRip | Diva Universal, ДТВ

53 | 90

46.21 ГБ

В этой теме нет новых непрочитанных сообщений. Ищейка / The Closer [S06] (2010) WEB-DL 720p | P

2 | 0

20.91 ГБ

В этой теме нет новых непрочитанных сообщений. Ищейка [S04] / The Closer (2008) SATRip

18 | 3

5.08 ГБ

В этой теме нет новых непрочитанных сообщений. Ищейка / The Closer [S07] (2012) HDTVRip | L1

6 | 2

11.06 ГБ




Вы не можете начинать темы
Вы не можете отвечать на сообщения
Вы не можете редактировать свои сообщения
Вы не можете удалять свои сообщения
Вы не можете добавлять вложения

Перейти:  
Для Мосгорсуда, Роскомнадзора и рекламодателей: mosgorsud-torrent[собачка]yandex.ru
 Вход
ppkBB3cker v.2 © 2008-2014 @ PPK
[ Time : 0.080s | 16 Queries | GZIP : Off ]

Торрент трекер RUTOR.IN, Не можете зайти на rutor.org? Какой новый адрес рутор? Какое зеркало рутор? Не работает rutor.org и зеркала? Тогда наш торрент специально для вас. Rutor.in неофициальное зеркало rutor. В случае если у Вас заблокирован rutor или вдруг Вы не можете на него зайти, то Вы без труда сможете скачать бесплатно и без рекламы последние новинки кино, игр, сериалов и прочего у нас, на Rutor.in. Не нужно использовать прокси, чтобы зайти на рутор, достаточно воспользоваться нашим ресурсом. Все новые фильмы, игры, сериалы, книги и музыка за 2013 и 2014 годы через торрент бесплатно. Скачивайте фильмы в хорошем качестве, игры для пк, xbox, playstation без регистрации. У нас вы найдете новые Зарубежные сериалы и Русские сериалы 2013, 2014, 2015 годов. Оставайтесь с нами, качайте любимые фильмы, игры, сериалы, книги и музыку.
cron