img image001 image001 image001 image001 image001 image001 image001 image001 image001 image001 image001 image001 image001 image001 image001

Planets Sun Sun Sun
Статистика раздачи
Автор: Снежана | Размер: 24.02 ГБ | Добавлен: 25 июл 2013
Раздают: 79    Качают: 47
Скачать торрент
Скачать торрент
Описание торрента

СообщениеДобавлено: 25 июл 2013 

#77

Название: Подпольная империя
Оригинальное название: Boardwalk Empire
Год выпуска: 2012
Страна: США | HBO
Жанр: драма, криминальный
Продолжительность: 12 х ~ 00:55:00
Перевод: Авторский (одноголосый, закадровый) | Ю. Сербин
Перевод: Профессиональный (многоголосый, закадровый) | LostFilm
Субтитры: Eng
Режиссер: Тимоти Ван Паттен, Аллен Култер

В ролях: Стив Бушеми (Enoch «Nucky» Thompson), Майкл Питт (James «Jimmy» Darmody), Ши Уигхэм (Elias «Eli» Thompson), Майкл Шеннон (Agent Nelson Van Alden), Келли Макдоналд (Margaret Schroeder), Алекса Палладино (Angela Darmody), Майкл Сталберг (Arnold Rothstein), Стивен Грэм (Al Capone), Винсент Пьяцца, Пас де ла Уэрта (Lucy Danziger) и др.

Описание: 1920 год. Через несколько часов Атлантик-Сити — столица развлечений и порока, как и вся Америка, вступит в эпоху «Сухого закона». Енох «Наки» Томпсон, днем — городской казначей, а ночью — хитроумный гангстер со связями на самом «верху», решает воспользоваться ситуацией и получить баснословные прибыли на подпольной торговле алкоголем. Однако не он один жаждет обогатиться на новом промысле…



Монтаж и работа со звуком: Nez



Качество: WEB-DL 720p
Формат: MKV
Видео кодек: H.264
Аудио кодек: AC3
Видео: 1280x720 (16:9), 23.976 fps, ~3 876 Kbps kbps, ~0.210 bit/pixel
Аудио rus: 48 kHz, 6 ch, ~384 kbps
Аудио rus: 48 kHz, 6 ch, ~384 kbps
Аудио eng: 48 kHz, 6 ch, ~384 kbps

Полный сезон!

01 - Обещание (Resolution)
02 - Спагетти и Кофе (Spaghetti and Coffee)
03 - Кость для Тунца (Bone for Tuna)
04 - Мальчик-колокольчик (Blue Bell Boy)
05 - Ты удивишься (You'd Be Surprised)
06 - Гинг-гэнг-гули (Ging Gang Goolie)
07 - Праздничный костюм (Sunday Best)
08 - Пони (The Pony)
09 - Блаженны нищие (The Milkmaid's Lot)
10 - Уведи у вора... (A Man, a Plan...)
11. - Два Самозванца (Two Imposters)
12. - Margate Sands
Формат : Matroska
Размер файла : 2,14 Гбайт
Продолжительность : 59 м.
Общий поток : 5112 Кбит/сек
Название фильма : Boardwalk Empire [Season 3] (2012) - Release for HDCLUB
Дата кодирования : UTC 2012-12-07 13:21:02
Программа кодирования : mkvmerge v5.8.0 ('No Sleep / Pillow') built on Sep 2 2012 15:37:04
Библиотека кодирования : libebml v1.2.3 + libmatroska v1.3.0

Видео
Идентификатор : 1
Формат : AVC
Формат/Информация : Advanced Video Codec
Профиль формата : High@L3.1
Параметр CABAC формата : Нет
Параметр ReFrames формата : 2 кадра
Идентификатор кодека : V_MPEG4/ISO/AVC
Продолжительность : 59 м.
Битрейт : 3859 Кбит/сек
Ширина : 1280 пикс.
Высота : 720 пикс.
Соотношение сторон : 16:9
Частота кадров : 23,976 кадр/сек
Цветовое пространство : YUV
Подвыборка цветности : 4:2:0
Битовая глубина : 8 бит
Тип развёртки : Прогрессивная
Бит/(Пиксели*Кадры) : 0.175
Размер потока : 1,61 Гбайт (75%)
Заголовок : Boardwalk Empire 3x12: Margate Sands / Пески Маргейта - Release for HDCLUB
Язык : English
Основные цвета : BT.709-5, BT.1361, IEC 61966-2-4, SMPTE RP177
Характеристики трансфера : BT.709-5, BT.1361
Коэффициенты матрицы : BT.709-5, BT.1361, IEC 61966-2-4 709, SMPTE RP177

Аудио #1
Идентификатор : 2
Формат : AC-3
Формат/Информация : Audio Coding 3
Расширение режима : CM (complete main)
Идентификатор кодека : A_AC3
Продолжительность : 59 м.
Вид битрейта : Постоянный
Битрейт : 384 Кбит/сек
Каналы : 6 каналов
Расположение каналов : Front: L C R, Side: L R, LFE
Частота : 48,0 КГц
Битовая глубина : 16 бит
Метод сжатия : С потерями
Размер потока : 164 Мбайт (8%)
Заголовок : Ю. Сербин
Язык : Russian

Аудио #2
Идентификатор : 3
Формат : AC-3
Формат/Информация : Audio Coding 3
Расширение режима : CM (complete main)
Идентификатор кодека : A_AC3
Продолжительность : 59 м.
Вид битрейта : Постоянный
Битрейт : 384 Кбит/сек
Каналы : 6 каналов
Расположение каналов : Front: L C R, Side: L R, LFE
Частота : 48,0 КГц
Битовая глубина : 16 бит
Метод сжатия : С потерями
Размер потока : 164 Мбайт (8%)
Заголовок : LostFilm
Язык : Russian

Аудио #3
Идентификатор : 4
Формат : AC-3
Формат/Информация : Audio Coding 3
Расширение режима : CM (complete main)
Идентификатор кодека : A_AC3
Продолжительность : 59 м.
Вид битрейта : Постоянный
Битрейт : 384 Кбит/сек
Каналы : 6 каналов
Расположение каналов : Front: L C R, Side: L R, LFE
Частота : 48,0 КГц
Битовая глубина : 16 бит
Метод сжатия : С потерями
Размер потока : 164 Мбайт (8%)
Язык : English

Текст
Идентификатор : 5
Формат : UTF-8
Идентификатор кодека : S_TEXT/UTF8
Идентификатор кодека/Информация : UTF-8 Plain Text
Язык : English



Релиз от:



   Похожие торренты   Торрент   Размер 
В этой теме нет новых непрочитанных сообщений. Подпольная империя / Преступная империя / Империя порока / Boardwalk Empire [S02] (2011) HDTVRip 720p | Сербин

66 | 31

26.24 ГБ

В этой теме нет новых непрочитанных сообщений. Подпольная империя / Преступная империя / Boardwalk Empire [S01-03] (2010-2012) HDTVRip | Ю. Сербин

1056 | 686

23.72 ГБ

В этой теме нет новых непрочитанных сообщений. Подпольная империя / Boardwalk Empire [S03] (2012) HDTVRip | Сербин

63 | 9

9.72 ГБ

В этой теме нет новых непрочитанных сообщений. Подпольная империя / Boardwalk Empire [S03] (2012) WEB-DLRip | Сербин

225 | 10

8.01 ГБ

В этой теме нет новых непрочитанных сообщений. Подпольная империя / Boardwalk Empire [S03] (2012) WEB-DL 1080p | Сербин

29 | 16

27.99 ГБ

В этой теме нет новых непрочитанных сообщений. Подпольная Империя / Преступная империя / Boardwalk Empire [05x01-04] (2014) HDTVRip 720p от HDClub | Amedia, Сербин

101 | 54

9.75 ГБ

В этой теме нет новых непрочитанных сообщений. Подпольная Империя / Преступная империя / Boardwalk Empire [05x01-03] (2014) HDTVRip 720p от HDClub | Amedia, Сербин

116 | 35

7.43 ГБ




Вы не можете начинать темы
Вы не можете отвечать на сообщения
Вы не можете редактировать свои сообщения
Вы не можете удалять свои сообщения
Вы не можете добавлять вложения

Перейти:  
Для Мосгорсуда, Роскомнадзора и рекламодателей: mosgorsud-torrent[собачка]yandex.ru
 Вход
ppkBB3cker v.2 © 2008-2014 @ PPK
[ Time : 0.060s | 14 Queries | GZIP : Off ]

Торрент трекер RUTOR.IN, Не можете зайти на rutor.org? Какой новый адрес рутор? Какое зеркало рутор? Не работает rutor.org и зеркала? Тогда наш торрент специально для вас. Rutor.in неофициальное зеркало rutor. В случае если у Вас заблокирован rutor или вдруг Вы не можете на него зайти, то Вы без труда сможете скачать бесплатно и без рекламы последние новинки кино, игр, сериалов и прочего у нас, на Rutor.in. Не нужно использовать прокси, чтобы зайти на рутор, достаточно воспользоваться нашим ресурсом. Все новые фильмы, игры, сериалы, книги и музыка за 2013 и 2014 годы через торрент бесплатно. Скачивайте фильмы в хорошем качестве, игры для пк, xbox, playstation без регистрации. У нас вы найдете новые Зарубежные сериалы и Русские сериалы 2013, 2014, 2015 годов. Оставайтесь с нами, качайте любимые фильмы, игры, сериалы, книги и музыку.