img image001 image001 image001 image001 image001 image001 image001 image001 image001 image001 image001 image001 image001 image001 image001

Planets Sun Sun Sun
Статистика раздачи
Автор: Снежана | Размер: 1.21 ГБ | Добавлен: 25 июл 2013
Раздают: 2    Качают: 2
Скачать торрент
Скачать торрент
Описание торрента

СообщениеДобавлено: 25 июл 2013 

#77

Название: Охи - вздохи
Оригинальное название: Exes & Ohs
Год выпуска: 2007
Страна: США
Жанр: мелодрама, комедия
Продолжительность: 06 х ~ 00:22:00
Перевод: Профессиональный (многоголосый, закадровый) - Baibako
Субтитры: на песни
Режиссер: Ли Фридлендер / Lee Friedlander

В ролях: Мишель Парадайз / Michelle Paradise, Марни Элтон / Marnie Alton, Анджела Фезерстоун / Angela Featherstone, Хизер Матараццо / Heather Matarazzo, Меган Кавана / Megan Cavanagh, Эми Е. Томпсон / Amy E. Thompson, Дэрби Стэнчфилд / Darby Stanchfield, Стэйси Грант / Stacy Grant

Описание: В сериале рассказывается о романтических похождениях Дженнифер (в ее роли Мишель Парадайз) и подруг-лесбиянок (а также и друзей-геев) в суетливом Сиэтле. Одну из подруг - лесбиянку, пытающаяся стать рок-звездой, сыграла актриса-лесбиянка Хизер Матараццо (Heather Matarazzo). Сериал несколько комедийный, т.е. веселый, непринужденный, основан он на короткометражном фильме "Десять правил: Гид по выживанию для лесбиянок" (The Ten Rules: A Lesbian Survival Guide).



Перевод: Сергей Серов и Елена Емельянова
Озвучка: Татьяна Оболевич, Юлия Котурбаш, Лира Грим и Алексей Кузнецов
Работа со звуком: Татьяна Оболевич
Обложка: Татьяна Оболевич



Качество: DVDRip
Формат: AVI
Видео кодек: XviD
Аудио кодек: MP3
Видео: MPEG4, XviD, 640x368 (16/9), 23.976 fps, 967 Kbps (0.171 bit/pixel)
Аудио rus: MP3, 48.0 KHz, 2 ch, 192 Kbps, CBR
Аудио eng: MP3, 48.0 KHz, 2 ch, 128 Kbps, CBR

01. There Must Be Rules
02. The Roads Previously Not Taken
03. Cutthroat
04. Love, Money, and a Six Olive Martini
05. Pole Dancing and Other Forms of Therapy
06. What Goes Around
Format : AVI
Format/Info : Audio Video Interleave
File size : 206 MiB
Duration : 22mn 2s
Overall bit rate : 1 307 Kbps
Writing application : VirtualDubMod 1.5.10.2 (build 2542/release)
Writing library : VirtualDubMod build 2542/release

Video
ID : 0
Format : MPEG-4 Visual
Format profile : Advanced Simple@L5
Format settings, BVOP : 2
Format settings, QPel : No
Format settings, GMC : No warppoints
Format settings, Matrix : Default (H.263)
Muxing mode : Packed bitstream
Codec ID : XVID
Codec ID/Hint : XviD
Duration : 22mn 2s
Bit rate : 967 Kbps
Width : 640 pixels
Height : 368 pixels
Display aspect ratio : 16:9
Frame rate : 23.976 fps
Color space : YUV
Chroma subsampling : 4:2:0
Bit depth : 8 bits
Scan type : Progressive
Compression mode : Lossy
Bits/(Pixel*Frame) : 0.171
Stream size : 153 MiB (74%)
Writing library : XviD 1.2.0SMP (UTC 2006-01-08)

Audio #1
ID : 1
Format : MPEG Audio
Format version : Version 1
Format profile : Layer 3
Mode : Joint stereo
Mode extension : MS Stereo
Codec ID : 55
Codec ID/Hint : MP3
Duration : 22mn 2s
Bit rate mode : Constant
Bit rate : 192 Kbps
Channel(s) : 2 channels
Sampling rate : 48.0 KHz
Compression mode : Lossy
Stream size : 30.3 MiB (15%)
Alignment : Aligned on interleaves
Interleave, duration : 42 ms (1.00 video frame)
Interleave, preload duration : 504 ms
Writing library : LAME3.99r
Encoding settings : -m j -V 4 -q 2 -lowpass 18.6 -b 192

Audio #2
ID : 2
Format : MPEG Audio
Format version : Version 1
Format profile : Layer 3
Mode : Joint stereo
Mode extension : MS Stereo
Codec ID : 55
Codec ID/Hint : MP3
Duration : 22mn 2s
Bit rate mode : Variable
Bit rate : 128 Kbps
Channel(s) : 2 channels
Sampling rate : 48.0 KHz
Compression mode : Lossy
Delay relative to video : 8ms
Stream size : 20.5 MiB (10%)
Alignment : Aligned on interleaves
Interleave, duration : 24 ms (0.58 video frame)
Interleave, preload duration : 147 ms

Релиз от: по заказу киноклуба "Eva Foreva"



   Похожие торренты   Торрент   Размер 
В этой теме нет новых непрочитанных сообщений. Охи-вздохи / Exes & Ohs [S02] (2009) DVDRip | Baibako

2 | 2

2.41 ГБ

В этой теме нет новых непрочитанных сообщений. Гильдия / The Guild [S01] (2007) DVDRip-AVC | Baibako

0 | 1

861.49 МБ

В этой теме нет новых непрочитанных сообщений. Бывшие / The Exes [S02] (2012) WEB-DLRip | P2

5 | 1

3.11 ГБ

В этой теме нет новых непрочитанных сообщений. Бывшие / The Exes [S01] (2011) HDTVRip | L1

4 | 3

1.8 ГБ

В этой теме нет новых непрочитанных сообщений. Бывшие / The Exes [03х01] (2013) HDTVRip

0 | 1

412.97 МБ

В этой теме нет новых непрочитанных сообщений. Бывшие / The Exes [03х04-14] (2013) HDTVRip | L1 | Юстас

19 | 27

2.39 ГБ

В этой теме нет новых непрочитанных сообщений. Бывшие / The Exes [03x01] (2013) WEB-DLRip | F-TRAIN

7 | 1

308.58 МБ




Вы не можете начинать темы
Вы не можете отвечать на сообщения
Вы не можете редактировать свои сообщения
Вы не можете удалять свои сообщения
Вы не можете добавлять вложения

Перейти:  
Для Мосгорсуда, Роскомнадзора и рекламодателей: mosgorsud-torrent[собачка]yandex.ru
 Вход
ppkBB3cker v.2 © 2008-2014 @ PPK
[ Time : 0.061s | 16 Queries | GZIP : Off ]

cron