img image001 image001 image001 image001 image001 image001 image001 image001 image001 image001 image001 image001 image001 image001 image001

Planets Sun Sun Sun
Статистика раздачи
Автор: Снежана | Размер: 5.83 ГБ | Добавлен: 25 июл 2013
Раздают: 40    Качают: 9
Скачать торрент
Скачать торрент
Описание торрента

СообщениеДобавлено: 25 июл 2013 

Антиснайпер 1 - 4 серии из 4


#77
Страны: Россия, Украина
Производство: Стар-медиа
Жанр: боевик, драма, криминал
Годы выпуска: 2007, 2010
Продолжительность: 01:32:29 + 01:29:56 + 01:31:36 + 01:30:56

Перевод: не требуется
Оригинальная аудиодорожка: русский
Cубтитры: нет

Режиссеры: Александр Березань, Сергей Соколюк

В ролях: Илья Шакунов, Ирина Апексимова, Юлия Беретта, Евгений Ганелин, Станислав Боклан, Олег Масленников, Георгий Поволоцкий, Сергей Романюк, Олег Савкин, Тамара Яценко, Галя Гринькив, Александр Данильченко, Александр Малышев, Ольга Филиппова, Игорь Филиппов, Сергей Газаров, Владимир Головин, Дмитрий Сова...

Исходник: 4 x DVD5 R5
Качество: DVDRip
Формат: AVI

Аудио: 48 kHz, AC3, 6 ch, 448.00 kbps

Раздача от:


Говнорелизер: Extenza777

http://rutor.org/torrent/127225/antisnajper-01-04-2007-2010-dvdrip-ot-kinozalsat

Наткнулся случайно, когда делал сравнения. В четвертой серии с 00:45:10 по 00:45:54 бегущая строка внизу экрана, в которой две прямые ссылки на два ресурса КинозалSAT. Сравнения не привожу, поскольку этого вполне достаточно. Скрин тоже нехороший не привожу, чтоб не рекламировать КинозалSAT, но если кому надо, могу и привести.

Антиснайпер
«Правосудие под прицелом»


#77


Страна: Россия
Год выпуска: 2007
Продолжительность: 01:32:29
Жанр: боевик

Режиссёр: Александр Березань

В ролях: Илья Шакунов, Ирина Апексимова, Юлия Беретта, Евгений Ганелин, Станислав Боклан, Олег Масленников, Георгий Поволоцкий, Сергей Романюк, Олег Савкин, Тамара Яценко...

Описание: Налоговая служба вместе со следственными органами и спецподразделением МВД расследуют крупные финансовые махинации, сопровождаемые рядом убийств замешанных в преступлении лиц. Выполнены «заказы», бесспорно, талантливым снайпером. Среди предполагаемых жертв — руководитель крупного химкомбината Бориса Морин. Сотрудники УБОПа предлагают Морину взаимовыгодную сделку: чтобы остаться в живых, тот должен раскрыть им свои финансовые разработки. К расследованию подключают ведущего аналитика Государственной налоговой администрации Татьяну Уварову.
Вскоре и ее жизни стала угрожать опасность. Охрану Уваровой поручили полковнику Погожеву — бывшему спецназовцу, человеку смелому и умному. В результате бурной и достаточно динамичной деятельности, был обнаружен «крот» в следственных органах, через которого шла утечка информации о ходе расследования. Более того, он пошел ва-банк, пытаясь уничтожить не только человека, начавшего давать показания, но и Татьяну Уварову. Но ничего у преступника не получилось! Он погиб. А у Алексея Погожева и Татьяны Уваровой начинается роман…






Видео: 704x400 (16:9), 25 fps, XviD ~ 1827 kbps avg, 0.260 bit/pixel

Общее
Полное имя : Antisnayper.2007.O.DVDRip_[Youtracker]_by_avproh1.avi
Формат : AVI
Формат/Информация : Audio Video Interleave
Размер файла : 1,48 Гбайт
Продолжительность : 1 ч. 32 м.
Общий поток : 2284 Кбит/сек
Программа кодирования : VirtualDubMod 1.5.10.3 | www.virtualdub-fr.org || (build 2550/release)
Библиотека кодирования : VirtualDubMod build 2550/release

Видео
Идентификатор : 0
Формат : MPEG-4 Visual
Профиль формата : Advanced Simple@L5
Параметр BVOP формата : 1
Параметр QPel формата : Нет
Параметр GMC формата : Без точки перехода
Параметр матрицы формата : Выборочная
Идентификатор кодека : XVID
Идентификатор кодека/Подсказка : XviD
Продолжительность : 1 ч. 32 м.
Битрейт : 1826 Кбит/сек
Ширина : 704 пикселя
Высота : 400 пикселей
Соотношение сторон : 16:9
Частота кадров : 25,000 кадров/сек
Цветовое пространство : YUV
Субдискретизация насыщенности : 4:2:0
Битовая глубина : 8 бит
Тип развёртки : Прогрессивная
Метод сжатия : С потерями
Бит/(Пиксели*Кадры) : 0.259
Размер потока : 1,18 Гбайт (80%)
Библиотека кодирования : XviD 65

Аудио
Идентификатор : 1
Формат : AC-3
Формат/Информация : Audio Coding 3
Расширение режима : CM (complete main)
Параметр Endianness формата : Big
Идентификатор кодека : 2000
Продолжительность : 1 ч. 32 м.
Вид битрейта : Постоянный
Битрейт : 448 Кбит/сек
Каналы : 6 каналов
Расположение каналов : Front: L C R, Side: L R, LFE
Частота : 48,0 КГц
Битовая глубина : 16 бит
Метод сжатия : С потерями
Размер потока : 296 Мбайт (20%)
Выравнивание : Разделение по промежуткам
Продолжительность промежутка : 40 мс. (1,00 видеокадр)
Время предзагрузки промежутка : 500 мс.






Антиснайпер 2: Двойная мотивация



Страна: Украина
Год выпуска: 2007
Продолжительность: 01:29:56
Жанр: боевик

Режиссёр: Александр Березань

В ролях: Ирина Апексимова, Илья Шакунов, Евгений Ганелин, Юлия Беретта, Сергей Романюк, Станислав Боклан, Галя Гринькив, Александр Данильченко, Олег Савкин, Александр Малышев...

Описание: рядах сотрудников следственных органов был вычислен «крот». Вся информация о ходе расследования, свидетельских показаниях и оперативных мероприятиях через него попадала к преступникам. Но враг не обезврежен, игра продолжается. Предатель решился идти ва-банк и попытался устранить не только «заговорившего» свидетеля, но и Уварову. Его удалось остановить, а сплоченные опасностью Татьяна и Алексей не устояли перед чувственным порывом и вышли за рамки уставных отношений.






Видео: 704x400 (16:9), 25 fps, XviD ~ 1827 kbps avg, 0.260 bit/pixel

Общее
Полное имя : Antisnayper.2007.O.DVDRip_[Youtracker]_by_avproh2.avi
Формат : AVI
Формат/Информация : Audio Video Interleave
Размер файла : 1,44 Гбайт
Продолжительность : 1 ч. 29 м.
Общий поток : 2287 Кбит/сек
Программа кодирования : VirtualDubMod 1.5.10.3 | www.virtualdub-fr.org || (build 2550/release)
Библиотека кодирования : VirtualDubMod build 2550/release

Видео
Идентификатор : 0
Формат : MPEG-4 Visual
Профиль формата : Advanced Simple@L5
Параметр BVOP формата : 1
Параметр QPel формата : Нет
Параметр GMC формата : Без точки перехода
Параметр матрицы формата : Выборочная
Идентификатор кодека : XVID
Идентификатор кодека/Подсказка : XviD
Продолжительность : 1 ч. 29 м.
Битрейт : 1830 Кбит/сек
Ширина : 704 пикселя
Высота : 400 пикселей
Соотношение сторон : 16:9
Частота кадров : 25,000 кадров/сек
Цветовое пространство : YUV
Субдискретизация насыщенности : 4:2:0
Битовая глубина : 8 бит
Тип развёртки : Прогрессивная
Метод сжатия : С потерями
Бит/(Пиксели*Кадры) : 0.260
Размер потока : 1,15 Гбайт (80%)
Библиотека кодирования : XviD 65

Аудио
Идентификатор : 1
Формат : AC-3
Формат/Информация : Audio Coding 3
Расширение режима : CM (complete main)
Параметр Endianness формата : Big
Идентификатор кодека : 2000
Продолжительность : 1 ч. 29 м.
Вид битрейта : Постоянный
Битрейт : 448 Кбит/сек
Каналы : 6 каналов
Расположение каналов : Front: L C R, Side: L R, LFE
Частота : 48,0 КГц
Битовая глубина : 16 бит
Метод сжатия : С потерями
Размер потока : 288 Мбайт (20%)
Выравнивание : Разделение по промежуткам
Продолжительность промежутка : 40 мс. (1,00 видеокадр)
Время предзагрузки промежутка : 500 мс.





Антиснайпер 3: Новый уровень


#77


Страна: Россия
Год выпуска: 2010
Продолжительность: 01:31:36
Жанр: драма, криминал

Режиссёр: Сергей Соколюк

В ролях: Илья Шакунов, Ольга Филиппова, Игорь Филиппов, Сергей Газаров, Сергей Романюк, Владимир Головин, Дмитрий Сова...

Описание: «Фирменный» выстрел через Татьяну в Алексея переводит игру Стрелка на новый уровень. Но жизнь Погожева во второй раз спасает титановый нагрудник. Смерть Татьяны заставляет Алексея перешагнуть через грань. Теперь и Стрелок, и Антиснайпер работают за гранью понимания… за гранью правил…






Видео: 704x400 (16:9), 25 fps, XviD ~ 1827 kbps avg, 0.260 bit/pixel

Общее
Полное имя : Antisnayper.2007.O.DVDRip_[Youtracker]_by_avproh3.avi
Формат : AVI
Формат/Информация : Audio Video Interleave
Размер файла : 1,46 Гбайт
Продолжительность : 1 ч. 31 м.
Общий поток : 2285 Кбит/сек
Программа кодирования : VirtualDubMod 1.5.10.3 | www.virtualdub-fr.org || (build 2550/release)
Библиотека кодирования : VirtualDubMod build 2550/release

Видео
Идентификатор : 0
Формат : MPEG-4 Visual
Профиль формата : Advanced Simple@L5
Параметр BVOP формата : 1
Параметр QPel формата : Нет
Параметр GMC формата : Без точки перехода
Параметр матрицы формата : Выборочная
Идентификатор кодека : XVID
Идентификатор кодека/Подсказка : XviD
Продолжительность : 1 ч. 31 м.
Битрейт : 1827 Кбит/сек
Ширина : 704 пикселя
Высота : 400 пикселей
Соотношение сторон : 16:9
Частота кадров : 25,000 кадров/сек
Цветовое пространство : YUV
Субдискретизация насыщенности : 4:2:0
Битовая глубина : 8 бит
Тип развёртки : Прогрессивная
Метод сжатия : С потерями
Бит/(Пиксели*Кадры) : 0.259
Размер потока : 1,17 Гбайт (80%)
Библиотека кодирования : XviD 65

Аудио
Идентификатор : 1
Формат : AC-3
Формат/Информация : Audio Coding 3
Расширение режима : CM (complete main)
Параметр Endianness формата : Big
Идентификатор кодека : 2000
Продолжительность : 1 ч. 31 м.
Вид битрейта : Постоянный
Битрейт : 448 Кбит/сек
Каналы : 6 каналов
Расположение каналов : Front: L C R, Side: L R, LFE
Частота : 48,0 КГц
Битовая глубина : 16 бит
Метод сжатия : С потерями
Размер потока : 294 Мбайт (20%)
Выравнивание : Разделение по промежуткам
Продолжительность промежутка : 40 мс. (1,00 видеокадр)
Время предзагрузки промежутка : 500 мс.





Антиснайпер 4: Выстрел из прошлого




Страна: Россия
Год выпуска: 2010
Продолжительность: 01:30:56
Жанр: драма, криминал

Режиссёр: Сергей Соколюк

В ролях: Илья Шакунов, Ольга Филиппова, Игорь Филиппов, Сергей Газаров, Сергей Романюк, Владимир Головин, Дмитрий Сова...

Описание: Снайпер, получивший оперативный псевдоним «Дальнобойщик», отстреливает криминальных авторитетов одного за другим. Кто этот киллер — исполнитель чужого заказа или инициатор криминальной войны с целью бандитского передела? Это и предстоит выяснить полковнику Погожеву.






Видео: 688x400 (1.72:1), 25 fps, XviD ~ 1827 kbps avg, 0.266 bit/pixel

Общее
Полное имя : Antisnayper.2007.O.DVDRip_[Youtracker]_by_avproh4.avi
Формат : AVI
Формат/Информация : Audio Video Interleave
Размер файла : 1,45 Гбайт
Продолжительность : 1 ч. 30 м.
Общий поток : 2284 Кбит/сек
Программа кодирования : VirtualDubMod 1.5.10.3 | www.virtualdub-fr.org || (build 2550/release)
Библиотека кодирования : VirtualDubMod build 2550/release

Видео
Идентификатор : 0
Формат : MPEG-4 Visual
Профиль формата : Advanced Simple@L5
Параметр BVOP формата : 1
Параметр QPel формата : Нет
Параметр GMC формата : Без точки перехода
Параметр матрицы формата : Выборочная
Идентификатор кодека : XVID
Идентификатор кодека/Подсказка : XviD
Продолжительность : 1 ч. 30 м.
Битрейт : 1827 Кбит/сек
Ширина : 688 пикселей
Высота : 400 пикселей
Соотношение сторон : 1,720
Частота кадров : 25,000 кадров/сек
Цветовое пространство : YUV
Субдискретизация насыщенности : 4:2:0
Битовая глубина : 8 бит
Тип развёртки : Прогрессивная
Метод сжатия : С потерями
Бит/(Пиксели*Кадры) : 0.266
Размер потока : 1,16 Гбайт (80%)
Библиотека кодирования : XviD 65

Аудио
Идентификатор : 1
Формат : AC-3
Формат/Информация : Audio Coding 3
Расширение режима : CM (complete main)
Параметр Endianness формата : Big
Идентификатор кодека : 2000
Продолжительность : 1 ч. 30 м.
Вид битрейта : Постоянный
Битрейт : 448 Кбит/сек
Каналы : 6 каналов
Расположение каналов : Front: L C R, Side: L R, LFE
Частота : 48,0 КГц
Битовая глубина : 16 бит
Метод сжатия : С потерями
Размер потока : 291 Мбайт (20%)
Выравнивание : Разделение по промежуткам
Продолжительность промежутка : 40 мс. (1,00 видеокадр)
Время предзагрузки промежутка : 500 мс.





   Похожие торренты   Торрент   Размер 
В этой теме нет новых непрочитанных сообщений. Антиснайпер [01-04 из 4] (2007, 2010) 4xDVD5 R5 от Youtracker | лицензия

3 | 6

14.33 ГБ

В этой теме нет новых непрочитанных сообщений. Антиснайпер (2007) DVDRip

12 | 4

1.37 ГБ

В этой теме нет новых непрочитанных сообщений. Антиснайпер 4: Выстрел из прошлого (2010) DVDRip

12 | 2

1.37 ГБ

В этой теме нет новых непрочитанных сообщений. Антиснайпер: Новый уровень (2010) SATRip

10 | 5

1.04 ГБ

В этой теме нет новых непрочитанных сообщений. Антиснайпер. Выстрел из прошлого (2010) SATRip от КинозалSAT

7 | 5

1.17 ГБ

В этой теме нет новых непрочитанных сообщений. Антиснайпер. Новый уровень (2010) SATRip от КинозалSAT

23 | 7

1.17 ГБ

В этой теме нет новых непрочитанных сообщений. Антиснайпер: Двойная мотивация (2008) DVDRip

30 | 12

700.81 МБ




Вы не можете начинать темы
Вы не можете отвечать на сообщения
Вы не можете редактировать свои сообщения
Вы не можете удалять свои сообщения
Вы не можете добавлять вложения

Перейти:  
Для Мосгорсуда, Роскомнадзора и рекламодателей: mosgorsud-torrent[собачка]yandex.ru
 Вход
ppkBB3cker v.2 © 2008-2014 @ PPK
[ Time : 1.114s | 14 Queries | GZIP : Off ]
CGP output time : 0.014s | 7 Queries | GZIP : Off

Торрент трекер RUTOR.IN, Не можете зайти на rutor.org? Какой новый адрес рутор? Какое зеркало рутор? Не работает rutor.org и зеркала? Тогда наш торрент специально для вас. Rutor.in неофициальное зеркало rutor. В случае если у Вас заблокирован rutor или вдруг Вы не можете на него зайти, то Вы без труда сможете скачать бесплатно и без рекламы последние новинки кино, игр, сериалов и прочего у нас, на Rutor.in. Не нужно использовать прокси, чтобы зайти на рутор, достаточно воспользоваться нашим ресурсом. Все новые фильмы, игры, сериалы, книги и музыка за 2013 и 2014 годы через торрент бесплатно. Скачивайте фильмы в хорошем качестве, игры для пк, xbox, playstation без регистрации. У нас вы найдете новые Зарубежные сериалы и Русские сериалы 2013, 2014, 2015 годов. Оставайтесь с нами, качайте любимые фильмы, игры, сериалы, книги и музыку.