img image001 image001 image001 image001 image001 image001 image001 image001 image001 image001 image001 image001 image001 image001 image001

Planets Sun Sun Sun
Статистика раздачи
Автор: Снежана | Размер: 23 ГБ | Добавлен: 25 июл 2013
Раздают: 3    Качают: 4
Скачать торрент
Скачать торрент
Описание торрента

СообщениеДобавлено: 25 июл 2013 

#77

Название: Сыны Анархии
Оригинальное название: Sons of Anarchy
Год выпуска: 2012
Страна: США
Жанр: Драма, криминал
Продолжительность: 13 x ~ 00:45:00
Перевод: Профессиональный (многоголосый, закадровый) LostFilm
Субтитры: Английские
Режиссер: Пэрис Барклай

В ролях: Чарли Ханнэм, Кэти Сагал, Марк Бун Джуниор, Ким Коутс, Томми Флэнаган, Мэгги Сифф, Рон Перлман, Тео Росси, Уильям Лаккинг, Райан Херст и др.

Описание: Сериал рассказывает о клубе байкеров, которые пытаются защитить свой городок от наркотиков и влияния из вне, хотя сами грешат торговлей оружием. Секс, наркотики и рок-н-ролл, любовь, насилие и смысл жизни – вокруг этих проблем бытия закручен сюжет «Сынов».



Перевод: Петр Чайников
Озвучка: Студия "LostFilm"

Качество: WEB-DL 720p
Формат: MKV
Видео кодек: H.264
Аудио кодек: AC3
Видео: 1280x720 (16:9), 23.976 fps, ~4000 kbps, ~0.180 bit/pixel
Аудио rus: 44,1 kHz, 2 ch, ~384 kbps
Аудио eng: 48,0 kHz, 2 ch, ~384 kbps

Добавлена 13-ая серия. Сезон закончен.

01. Самодержец (Sovereign)
02. Властью наделенный (Authority Vested)
03. Выбор мишени (Laying Pipe)
04. Украденный велосипед (Stolen Huffy)
05. Туша вздрогнула (Orca Shrugged)
06. Мир тесен (Small World)
07. Сумасшедшая езда (Toad's Wild Ride)
08. Разрушение (Ablation)
09. Пойти порыбачить (Andare Pescare)
10. Распятый (Crucifixed)
11. Каждому свое (To Thine Own Self)
12. Укол (Darthy)
13. Всё под контролем (J'ai Obtenu Cette)
Формат : Matroska
Размер файла : 2,05 Гбайт
Продолжительность : 1 ч. 0 м.
Общий поток : 4811 Кбит/сек
Дата кодирования : UTC 2012-11-25 16:48:30
Программа кодирования : mkvmerge v4.2.0 ('No Talking') сборка от Jul 28 2010 18:38:23
Библиотека кодирования : libebml v1.0.0 + libmatroska v1.0.0

Видео
Идентификатор : 1
Формат : AVC
Формат/Информация : Advanced Video Codec
Профиль формата : High@L3.1
Параметр CABAC формата : Да
Параметр ReFrames формата : 4 кадра
Параметры GOP формата : M=3, N=6
Идентификатор кодека : V_MPEG4/ISO/AVC
Продолжительность : 1 ч. 0 м.
Битрейт : 4041 Кбит/сек
Ширина : 1280 пикс.
Высота : 720 пикс.
Соотношение сторон : 16:9
Частота кадров : 23,976 кадр/сек
Цветовое пространство : YUV
Подвыборка цветности : 4:2:0
Битовая глубина : 8 бит
Тип развёртки : Прогрессивная
Бит/(Пиксели*Кадры) : 0.183
Размер потока : 1,68 Гбайт (82%)
Библиотека кодирования : x264 core 112 r1834 a51816a
Настройки программы : cabac=1 / ref=1 / deblock=1:0:0 / analyse=0x3:0x113 / me=hex / subme=7 / psy=1 / psy_rd=1.00:0.00 / mixed_ref=0 / me_range=16 / chroma_me=1 / trellis=1 / 8x8dct=1 / cqm=0 / deadzone=21,11 / fast_pskip=1 / chroma_qp_offset=-2 / threads=6 / sliced_threads=0 / nr=0 / decimate=1 / interlaced=0 / constrained_intra=0 / bframes=3 / b_pyramid=2 / b_adapt=1 / b_bias=0 / direct=1 / weightb=1 / open_gop=0 / weightp=2 / keyint=250 / keyint_min=25 / scenecut=40 / intra_refresh=0 / rc_lookahead=40 / rc=2pass / mbtree=1 / bitrate=4041 / ratetol=1.0 / qcomp=0.60 / qpmin=0 / qpmax=51 / qpstep=4 / cplxblur=20.0 / qblur=0.5 / ip_ratio=1.40 / aq=1:1.00

Аудио #1
Идентификатор : 2
Формат : AC-3
Формат/Информация : Audio Coding 3
Расширение режима : CM (complete main)
Идентификатор кодека : A_AC3
Продолжительность : 1 ч. 0 м.
Вид битрейта : Постоянный
Битрейт : 384 Кбит/сек
Каналы : 2 канала
Расположение каналов : Front: L R
Частота : 44,1 КГц
Битовая глубина : 16 бит
Метод сжатия : С потерями
Размер потока : 167 Мбайт (8%)

Аудио #2
Идентификатор : 3
Формат : AC-3
Формат/Информация : Audio Coding 3
Расширение режима : CM (complete main)
Идентификатор кодека : A_AC3
Продолжительность : 1 ч. 0 м.
Вид битрейта : Постоянный
Битрейт : 384 Кбит/сек
Каналы : 2 канала
Расположение каналов : Front: L R
Частота : 48,0 КГц
Битовая глубина : 16 бит
Метод сжатия : С потерями
Размер потока : 167 Мбайт (8%)


Релиз от:



   Похожие торренты   Торрент   Размер 
В этой теме нет новых непрочитанных сообщений. Сыны Анархии / Sons of Anarchy [S05] (2012) WEB-DLRip | LostFilm

213 | 58

7.98 ГБ

В этой теме нет новых непрочитанных сообщений. Сыны Анархии / Sons of Anarchy [S01-05] (2008-2012) WEB-DLRip, HDTVRip | LostFilm

36 | 41

33.63 ГБ

В этой теме нет новых непрочитанных сообщений. Сыны Анархии / Sons of Anarchy [S01-05] (2008-2012) HDTVRip-AVC,WEB-DLRip-AVC 720р l LostFilm

10 | 37

56.61 ГБ

В этой теме нет новых непрочитанных сообщений. Сыны Анархии / Sons of Anarchy [S01-05] (2008-2012) HDTVRip-AVC,WEB-DLRip-AVC 720р l LostFilm

4 | 6

52.98 ГБ

В этой теме нет новых непрочитанных сообщений. Сыны Анархии / Sons of Anarchy [01-06x01-72 из 79] (2008-2013) HDTVRip,WEB-DLRip-AVC 720p l LostFilm

89 | 110

71.35 ГБ

В этой теме нет новых непрочитанных сообщений. Сыны Анархии / Sons of Anarchy [S03] (2010) WEB-DLRip | LostFilm

394 | 44

6.48 ГБ

В этой теме нет новых непрочитанных сообщений. Сыны Анархии / Sons of Anarchy [S07] (2014) WEB-DLRip | LostFilm

1052 | 591

9.96 ГБ




Вы не можете начинать темы
Вы не можете отвечать на сообщения
Вы не можете редактировать свои сообщения
Вы не можете удалять свои сообщения
Вы не можете добавлять вложения

Перейти:  
Для Мосгорсуда, Роскомнадзора и рекламодателей: mosgorsud-torrent[собачка]yandex.ru
 Вход
ppkBB3cker v.2 © 2008-2014 @ PPK
[ Time : 0.034s | 17 Queries | GZIP : On ]

Торрент трекер RUTOR.IN, Не можете зайти на rutor.org? Какой новый адрес рутор? Какое зеркало рутор? Не работает rutor.org и зеркала? Тогда наш торрент специально для вас. Rutor.in неофициальное зеркало rutor. В случае если у Вас заблокирован rutor или вдруг Вы не можете на него зайти, то Вы без труда сможете скачать бесплатно и без рекламы последние новинки кино, игр, сериалов и прочего у нас, на Rutor.in. Не нужно использовать прокси, чтобы зайти на рутор, достаточно воспользоваться нашим ресурсом. Все новые фильмы, игры, сериалы, книги и музыка за 2013 и 2014 годы через торрент бесплатно. Скачивайте фильмы в хорошем качестве, игры для пк, xbox, playstation без регистрации. У нас вы найдете новые Зарубежные сериалы и Русские сериалы 2013, 2014, 2015 годов. Оставайтесь с нами, качайте любимые фильмы, игры, сериалы, книги и музыку.