img image001 image001 image001 image001 image001 image001 image001 image001 image001 image001 image001 image001 image001 image001 image001

Planets Sun Sun Sun
Статистика раздачи
Автор: Снежана | Размер: 4.45 ГБ | Добавлен: 25 июл 2013
Раздают: 48    Качают: 6
Скачать торрент
Скачать торрент
Описание торрента

СообщениеДобавлено: 25 июл 2013 

#77

Название: Особо Опасные Преступления / Особо тяжкие преступления
Оригинальное название: Major Crimes
Год выпуска: 2012
Страна: США
Жанр: детектив
Продолжительность: 10 х ~ 00:44:00
Перевод: Любительский двухголосый закадровый - DreamRecords
Субтитры: отсутствуют
Режиссер: Стэйси К. Блэк, Арвин Браун, Шилин Чокси

В ролях: Мэри МакДоннелл, Дж. У. Бейли, Энтони Джон Дэнисон, Майкл Пол Чан, Рэймонд Крус,Филлип П. Кин, Кирран Джованни, Грэхэм Патрик Мартин, Джонатан Дель Арко, Рэнсфорд Доэрти

Описание: Продолжение сериала Ищейка. После увольнения Бренды Ли Джонсон руководство Отделом Ососбо Опасных преступлений полиции Лос-Анджелеса берет в свои руки капитан Рэйдор. Однако ей предстоит работать в команде, котроая заранее испытывает к ней антипатию, ведь антипатию к ней всегда испытывала шеф Джонсон.

Дополнительно: Данный телесериал является спин-оффом сериала «Ищейка» (The Closer), на этот раз команду возглавляет персонаж Шэрон Рейдор.


Перевод: HighFlyer, ono66, wdata
Озвучка: Christh & eske
Работа со звуком: LeX
Рип видео: LeX



Качество: HDTVRip
Формат: AVI
Видео кодек: XviD
Аудио кодек: MP3
Видео: 720x400, 1 295 Kbps, 23.976 fps, 0.188 bit/pixel
Аудио rus: MP3, 48 kHz, 2 ch, 224 kbps

Добавлена 10-ая серия. Сезон завершен.

01. Перезагрузка / Reload
02. До и после / Before and After
03. Медицинские казусы / Medical Causes
04. Экстаз и агония / The Ecstasy and the Agony
05. Гражданский арест / Citizen's Arrest
06. За пределы / Out of Bounds
07. Позорная игра / The Shame Game
08. Dismissed with Prejudice
09. Мошенники никогда не преуспевают / Cheaters Never Prosper
10. Long Shot
Format : AVI
Format/Info : Audio Video Interleave
File size : 467 MiB
Duration : 42mn 47s
Overall bit rate : 1 527 Kbps
Writing application : VirtualDubModRus 1.5.10.2 (build 2542/release)
Writing library : VirtualDubMod build 2542/release

Video
ID : 0
Format : MPEG-4 Visual
Format profile : Advanced Simple@L5
Format settings, BVOP : 1
Format settings, QPel : No
Format settings, GMC : No warppoints
Format settings, Matrix : Default (MPEG)
Codec ID : XVID
Codec ID/Hint : XviD
Duration : 42mn 47s
Bit rate : 1 294 Kbps
Width : 720 pixels
Height : 400 pixels
Display aspect ratio : 16:9
Frame rate : 23.976 fps
Color space : YUV
Chroma subsampling : 4:2:0
Bit depth : 8 bits
Scan type : Progressive
Compression mode : Lossy
Bits/(Pixel*Frame) : 0.187
Stream size : 396 MiB (85%)
Writing library : XviD 64

Audio
ID : 1
Format : MPEG Audio
Format version : Version 1
Format profile : Layer 3
Mode : Joint stereo
Codec ID : 55
Codec ID/Hint : MP3
Duration : 42mn 47s
Bit rate mode : Constant
Bit rate : 224 Kbps
Channel(s) : 2 channels
Sampling rate : 48.0 KHz
Compression mode : Lossy
Stream size : 68.6 MiB (15%)
Alignment : Aligned on interleaves
Interleave, duration : 42 ms (1.00 video frame)
Interleave, preload duration : 504 ms


Релиз от:



   Похожие торренты   Торрент   Размер 
В этой теме нет новых непрочитанных сообщений. Особо опасные преступления / Особо тяжкие преступления / Major Crimes [06x01 из 19] (2017) WEBRip 1080p | IdeaFilm

2 | 0

3.53 ГБ

В этой теме нет новых непрочитанных сообщений. Особо опасные преступления / Особо тяжкие преступления / Major Crimes [06x01 из 19] (2017) WEBRip 720p | IdeaFilm

11 | 1

2.35 ГБ

В этой теме нет новых непрочитанных сообщений. Особо опасные преступления / Особо тяжкие преступления / Major Crimes [06x01 из 19] (2017) WEBRip | IdeaFilm

0 | 0

666.79 МБ

В этой теме нет новых непрочитанных сообщений. Особо тяжкие преступления / Major Crimes [05x01-05 из 19] (2016) HDTVRip | DexterTV

51 | 9

2.45 ГБ

В этой теме нет новых непрочитанных сообщений. Особо тяжкие преступления / Major Crimes [05x01-15 из 21] (2016) HDTVRip | DexterTV

6 | 19

7.37 ГБ

В этой теме нет новых непрочитанных сообщений. Особо тяжкие преступления / Major Crimes [05x01-11 из 21] (2016) HDTVRip | DexterTV

12 | 20

5.42 ГБ

В этой теме нет новых непрочитанных сообщений. Особо тяжкие преступления / Major Crimes [05x01-17 из 21] (2016-2017) HDTVRip | DexterTV

9 | 8

8.37 ГБ




Вы не можете начинать темы
Вы не можете отвечать на сообщения
Вы не можете редактировать свои сообщения
Вы не можете удалять свои сообщения
Вы не можете добавлять вложения

Перейти:  
Для Мосгорсуда, Роскомнадзора и рекламодателей: mosgorsud-torrent[собачка]yandex.ru
 Вход
ppkBB3cker v.2 © 2008-2014 @ PPK
[ Time : 0.050s | 15 Queries | GZIP : Off ]

cron