img image001 image001 image001 image001 image001 image001 image001 image001 image001 image001 image001 image001 image001 image001 image001

Planets Sun Sun Sun
Статистика раздачи
Автор: Снежана | Размер: 2.74 ГБ | Добавлен: 25 июл 2013
Раздают: 8    Качают: 8
Скачать торрент
Скачать торрент
Описание торрента

СообщениеДобавлено: 25 июл 2013 



Оригинальное название: Луна в зените
Год выпуска: 2007
Жанр: Драма, биография, исторический
Режиссер: Дмитрий Томашпольский
В ролях: Светлана Крючкова, Светлана Свирко, Владимир Кошевой, Сергей Барышев, Ирина Соколова (II), Алексей Зубарев, Юрий Цурило, Пётр Вельяминов, Георгий Штиль, Юрий Орлов (II), Василий Реутов, Римма Саркисян, Анна Алексахина, Наталия Фиссон, Аксель Шрик, Сильви Бульон, Екатерина Унтилова, Люк Паркер, Александр Безруков, Ольга Озёрная, Наталья Розанова, Эмилия Любченко, Елена Терновая, Леонид Мозговой, Александр Мосолов, Игорь Шибанов, Светлана Гайтан, Марина Белкина, Владимир Жепко, Алексей Афанасьев, Александр Бен, Андрей Феськов, Роман Ярославцев, Борис Петухов, Георгий Пицхелаури, Алла Осипенко, Валентин Жиляев, Олег Любаев

О фильме:
Биографический сериал построен как воспоминания поэтессы Анны Ахматовой о прожитых годах. В основе фильма - незаконченная пьеса Ахматовой «Пролог, или Сон во сне». Фильм показывает, как колесо истории прокатилось по жизни лучших представителей Серебряного века. Кого-то, раздавив, кому-то, сломав хребет, а кого-то просто подмяв или больно ударив. Что важнее — устройство всего общества или частная жизнь человека?



Выпущено: Россия, Крупный план, Синема
Продолжительность: 4 x ~ 00:42:00
Язык: Русский

Формат: AVI
Качество: DVDRip (Рип с ДВД-9)
Видео: XviD, ~ 2130 Кбит/с, 720x400
Аудио: AC3, 2 ch, 192 Кбит/с

Общее
Полное имя : D:КИНОсериалыLuna v Zenite_1-4ser�1-02_Luna.v.zenite.2007.O.DVDRip.avi
Формат : AVI
Формат/Информация : Audio Video Interleave
Размер файла : 1,37 Гбайт
Продолжительность : 1 ч. 24 м.
Общий поток : 2335 Кбит/сек
Библиотека кодирования : VirtualDub build 34807/release

Видео
Идентификатор : 0
Формат : MPEG-4 Visual
Профиль формата : Advanced Simple@L5
Параметр BVOP формата : 2
Параметр QPel формата : Нет
Параметр GMC формата : Без точки перехода
Параметр матрицы формата : Default (MPEG)
Режим смешивания : Сжатый битовый поток
Идентификатор кодека : XVID
Идентификатор кодека/Подсказка : XviD
Продолжительность : 1 ч. 24 м.
Битрейт : 2133 Кбит/сек
Ширина : 720 пикселей
Высота : 400 пикселей
Соотношение сторон : 16:9
Частота кадров : 25,000 кадров/сек
Цветовое пространство : YUV
Субдискретизация насыщенности : 4:2:0
Битовая глубина : 8 бит
Тип развёртки : Чересстрочная
Порядок развёртки : Нижнее поле первое
Метод сжатия : С потерями
Бит/(Пиксели*Кадры) : 0.296
Размер потока : 1,25 Гбайт (91%)
Библиотека кодирования : XviD 73

Аудио
Идентификатор : 1
Формат : AC-3
Формат/Информация : Audio Coding 3
Расширение режима : CM (complete main)
Параметр Endianness формата : Big
Идентификатор кодека : 2000
Продолжительность : 1 ч. 24 м.
Вид битрейта : Постоянный
Битрейт : 192 Кбит/сек
Каналы : 2 канала
Расположение каналов : Front: L R
Частота : 48,0 КГц
Битовая глубина : 16 бит
Метод сжатия : С потерями
Размер потока : 115 Мбайт (8%)
Выравнивание : Соединение по промежуткам
Продолжительность промежутка : 40 мс. (1,00 видеокадр)
Время предзагрузки промежутка : 512 мс.















   Похожие торренты   Торрент   Размер 
В этой теме нет новых непрочитанных сообщений. Грустная Луна / Исчезнувшая Луна / Khoya Khoya Chand (2007) IPTVRip от Files-x

0 | 3

1.41 ГБ

В этой теме нет новых непрочитанных сообщений. Неистовая Луна / Бешеная луна / The Raging Moon (1971) DVDRip

1 | 3

1.46 ГБ

В этой теме нет новых непрочитанных сообщений. Неистовая Луна / Бешеная луна / The Raging Moon (1971) DVDRip-AVC

0 | 5

1.46 ГБ

В этой теме нет новых непрочитанных сообщений. Луна-Одесса (2007) DVDRip от КинозалSAT

186 | 3

1.37 ГБ

В этой теме нет новых непрочитанных сообщений. Исчезнувшая луна / Khoya Khoya Chand (2007) DVDRip | D

3 | 4

1.37 ГБ

В этой теме нет новых непрочитанных сообщений. BBC: Нужна ли нам Луна? / Зачем нам Луна? / Do We Really Need the Moon? (2011) HDTVRip | P2

293 | 19

856.02 МБ

В этой теме нет новых непрочитанных сообщений. Луна. Секретная зона (2007) SATRip

1 | 7

685.99 МБ




Вы не можете начинать темы
Вы не можете отвечать на сообщения
Вы не можете редактировать свои сообщения
Вы не можете удалять свои сообщения
Вы не можете добавлять вложения

Перейти:  
Для Мосгорсуда, Роскомнадзора и рекламодателей: mosgorsud-torrent[собачка]yandex.ru
 Вход
ppkBB3cker v.2 © 2008-2014 @ PPK
[ Time : 0.023s | 16 Queries | GZIP : Off ]

Торрент трекер RUTOR.IN, Не можете зайти на rutor.org? Какой новый адрес рутор? Какое зеркало рутор? Не работает rutor.org и зеркала? Тогда наш торрент специально для вас. Rutor.in неофициальное зеркало rutor. В случае если у Вас заблокирован rutor или вдруг Вы не можете на него зайти, то Вы без труда сможете скачать бесплатно и без рекламы последние новинки кино, игр, сериалов и прочего у нас, на Rutor.in. Не нужно использовать прокси, чтобы зайти на рутор, достаточно воспользоваться нашим ресурсом. Все новые фильмы, игры, сериалы, книги и музыка за 2013 и 2014 годы через торрент бесплатно. Скачивайте фильмы в хорошем качестве, игры для пк, xbox, playstation без регистрации. У нас вы найдете новые Зарубежные сериалы и Русские сериалы 2013, 2014, 2015 годов. Оставайтесь с нами, качайте любимые фильмы, игры, сериалы, книги и музыку.