img image001 image001 image001 image001 image001 image001 image001 image001 image001 image001 image001 image001 image001 image001 image001

Planets Sun Sun Sun
Статистика раздачи
Автор: Снежана | Размер: 6.34 ГБ | Добавлен: 25 июл 2013
Раздают: 191    Качают: 73
Скачать торрент
Скачать торрент
Описание торрента

СообщениеДобавлено: 25 июл 2013 

Что сказал покойник (сериал)




#77
Год выпуска: 1999
Страна: Россия , Польша , Франция , Германия , Дания
Жанр: комедия, криминал, приключения, ...
Продолжительность: Одной серии ~ 00:52:05
Перевод: Не требуется

Режиссер: Игорь Масленников
Сценарий: Владимир Вардунас, Иоанна Хмелевская
Продюсер: Сергей Жигунов
Оператор: Владимир Ильин, Вадим Юсов
Композитор: Владимир Дашкевич
Монтаж: Алексей Маклаков

В ролях: Марта Клубович (Иоанна), Олег Табаков (Йенсен, комиссар полиции Копенгагена), Олег Басилашвили (шеф), Алексей Булдаков (Патлатый), Евгений Воскресенский (Хромой), Владимир Епископосян (Бородач), Эва Шикульска (Алиса), Мамука Кикалейшвили (Беркович, агент Интерпола)


Описание: Героиня фильма — польская дама — попадает в невероятную ситуацию. В игорном доме умирающий от пули гангстер произносит ей шифр места, где находятся награбленные сокровища. Ее тут же похищают с целью получить эту информацию, что оказывается совсем не просто.Однако кокетство, фантазия и женская интуиция оказывается не меньшей силой, чем гангстерский Синдикат. Действие фильма переносится из Дании в Бразилию, из Бразилии во Францию, в Грецию и, наконец, в Польшу. Героиня фильма играет с гангстерами в изощренную двойную игру, и вступает в поединок с самим Главарем…



Премьера (РФ): 26 сентября 2000
Релиз на DVD: 22 октября 2009, «CP-Digital», ...






Качество: DVDRip
Формат: AVI
Видео кодек: XviD
Аудио кодеk: AC3
Видео: 704x528 (4:3), 25.000 fps, XviD, ~1 289 Kbps
Аудио: Аудио #1: AC3, 448 Kbps, 48.0 KHz, 6 ch





General
Complete name : Chto.skazal.pokoinik.(01.seriya.iz.10).2000.XviD.DVDRip.kinozal.tv.avi
Format : AVI
Format/Info : Audio Video Interleave
File size : 650 MiB
Duration : 52mn 5s
Overall bit rate : 1 744 Kbps
Writing application : VirtualDubMod 1.5.4.1 (build 2178/release)
Writing library : VirtualDubMod build 2178/release

Video
ID : 0
Format : MPEG-4 Visual
Format profile : Advanced Simple@L5
Format settings, BVOP : Yes
Format settings, QPel : No
Format settings, GMC : No warppoints
Format settings, Matrix : Custom
Codec ID : XVID
Codec ID/Hint : XviD
Duration : 52mn 5s
Bit rate : 1 289 Kbps
Width : 704 pixels
Height : 528 pixels
Display aspect ratio : 4:3
Frame rate : 25.000 fps
Color space : YUV
Chroma subsampling : 4:2:0
Bit depth : 8 bits
Scan type : Progressive
Bits/(Pixel*Frame) : 0.139
Stream size : 480 MiB (74%)
Writing library : XviD 1.3.0.dev55

Audio
ID : 1
Format : AC-3
Format/Info : Audio Coding 3
Mode extension : CM (complete main)
Codec ID : 2000
Duration : 52mn 5s
Bit rate mode : Constant
Bit rate : 448 Kbps
Channel(s) : 6 channels
Channel positions : Front: L C R, Side: L R, LFE
Sampling rate : 48.0 KHz
Bit depth : 16 bits
Stream size : 167 MiB (26%)
Alignment : Aligned on interleaves
Interleave, duration : 96 ms (2.40 video frames)
Interleave, preload duration : 96 ms
Language : Russian












   Похожие торренты   Торрент   Размер 
В этой теме нет новых непрочитанных сообщений. Хмелевская Иоанна - Что сказал покойник (1972) (2008) MP3

70 | 9

554.8 МБ

В этой теме нет новых непрочитанных сообщений. Кто сказал мяу? (1962) DVDRip

207 | 15

118.83 МБ

В этой теме нет новых непрочитанных сообщений. И тогда я сказал - нет... (1973) DVDRip

3 | 1

1.37 ГБ

В этой теме нет новых непрочитанных сообщений. Он сказал, она сказала / He Said, She Said (1991) DVDRip | P

37 | 36

2.2 ГБ

В этой теме нет новых непрочитанных сообщений. Он сказал, она сказала / He Said, She Said (1991) DVDRip | P

37 | 14

1.46 ГБ

В этой теме нет новых непрочитанных сообщений. И сказал Господь Каину / E Dio disse a Caino (1970) DVDRip

56 | 13

1.46 ГБ

В этой теме нет новых непрочитанных сообщений. И Сказал Господь Каину / E Dio Disse a Caino / And God Said to Cain / And God Said to Cain (1970) DVDRip-AVC | L1

62 | 12

1.49 ГБ




Вы не можете начинать темы
Вы не можете отвечать на сообщения
Вы не можете редактировать свои сообщения
Вы не можете удалять свои сообщения
Вы не можете добавлять вложения

Перейти:  
Для Мосгорсуда, Роскомнадзора и рекламодателей: mosgorsud-torrent[собачка]yandex.ru
 Вход
ppkBB3cker v.2 © 2008-2014 @ PPK
[ Time : 0.037s | 15 Queries | GZIP : Off ]

Торрент трекер RUTOR.IN, Не можете зайти на rutor.org? Какой новый адрес рутор? Какое зеркало рутор? Не работает rutor.org и зеркала? Тогда наш торрент специально для вас. Rutor.in неофициальное зеркало rutor. В случае если у Вас заблокирован rutor или вдруг Вы не можете на него зайти, то Вы без труда сможете скачать бесплатно и без рекламы последние новинки кино, игр, сериалов и прочего у нас, на Rutor.in. Не нужно использовать прокси, чтобы зайти на рутор, достаточно воспользоваться нашим ресурсом. Все новые фильмы, игры, сериалы, книги и музыка за 2013 и 2014 годы через торрент бесплатно. Скачивайте фильмы в хорошем качестве, игры для пк, xbox, playstation без регистрации. У нас вы найдете новые Зарубежные сериалы и Русские сериалы 2013, 2014, 2015 годов. Оставайтесь с нами, качайте любимые фильмы, игры, сериалы, книги и музыку.