img image001 image001 image001 image001 image001 image001 image001 image001 image001 image001 image001 image001 image001 image001 image001

Planets Sun Sun Sun
Статистика раздачи
Автор: Снежана | Размер: 5.47 ГБ | Добавлен: 25 июл 2013
Раздают: 12    Качают: 5
Скачать торрент
Скачать торрент
Описание торрента

СообщениеДобавлено: 25 июл 2013 

#77

Название: Под прицелом
Оригинальное название: Hunted
Год выпуска: 2012
Страна: Великобритания
Жанр: Боевик, драма
Продолжительность: 08 x ~ 00:58:00
Перевод: Профессиональный (двухголосый закадровый) - Бяко Рекордс
Субтитры: Нет
Режиссер: Дэниэл Персивал

В ролях: Мелисса Джордж, Адевале Акиннуойе-Агбадже, Морвен Кристи, Оскар Кеннеди, Даффер Лабидин, Скотт Хэнди

Описание: Саманта — действующий шпион частного разведывательного управления. После покушения на свою жизнь, она догадывается, что оно было организовано членами её команды. После выздоровления и возвращения на службу она должна выполнять свои секретные миссии, не зная, кому можно доверять и кто хочет её смерти.



Перевод: StyleSmile
Озвучка: Константин Погодаев, Анна Тух (Бяко Рекордс
Работа со звуком: Koss
Рип видео: Koss

Качество: WEB-DLRip
Формат: AVI
Видео кодек: XviD
Аудио кодек: MP3
Видео: XviD, ~ 1388 Кбит/с, 720x400
Аудио rus: MP3, 2 ch, 128 Кбит/с
Аудио eng: MP3, 2 ch, 128 Кбит/с

Добавлена 08-ая серия. Сезон полностью.

01. Mort
02. LB
03. Hourglass
04. Kismet
05. Ambassadors
06. Polyhedrus
07. Khyber
08. Snow Maiden
Формат : AVI
Формат/Информация : Audio Video Interleave
Размер файла : 700 Мбайт
Продолжительность : 59 м.
Общий поток : 1645 Кбит/сек
Программа кодирования : VirtualDubMod 1.5.10.2 (build 2540/release)
Библиотека кодирования : VirtualDubMod build 2540/release

Видео
Идентификатор : 0
Формат : MPEG-4 Visual
Профиль формата : Advanced Simple@L5
Параметр BVOP формата : 2
Параметр QPel формата : Нет
Параметр GMC формата : Без точки перехода
Параметр матрицы формата : Default (MPEG)
Идентификатор кодека : XVID
Идентификатор кодека/Подсказка : XviD
Продолжительность : 59 м.
Битрейт : 1374 Кбит/сек
Ширина : 720 пикс.
Высота : 400 пикс.
Соотношение сторон : 16:9
Частота кадров : 25,000 кадр/сек
Цветовое пространство : YUV
Подвыборка цветности : 4:2:0
Битовая глубина : 8 бит
Тип развёртки : Прогрессивная
Метод сжатия : С потерями
Бит/(Пиксели*Кадры) : 0.191
Размер потока : 585 Мбайт (84%)
Библиотека кодирования : XviD 65

Аудио #1
Идентификатор : 1
Формат : MPEG Audio
Версия формата : Version 1
Профиль формата : Layer 3
Режим : Joint stereo
Расширение режима : MS Stereo
Идентификатор кодека : 55
Идентификатор кодека/Подсказка : MP3
Продолжительность : 59 м.
Вид битрейта : Постоянный
Битрейт : 128 Кбит/сек
Каналы : 2 канала
Частота : 48,0 КГц
Метод сжатия : С потерями
Размер потока : 54,5 Мбайт (8%)
Выравнивание : Соединение по промежуткам
Продолжительность промежутка : 40 мс. (1,00 видеокадр)
Время предзагрузки промежутка : 504 ms

Аудио #2
Идентификатор : 2
Формат : MPEG Audio
Версия формата : Version 1
Профиль формата : Layer 3
Режим : Joint stereo
Расширение режима : MS Stereo
Идентификатор кодека : 55
Идентификатор кодека/Подсказка : MP3
Продолжительность : 59 м.
Вид битрейта : Постоянный
Битрейт : 128 Кбит/сек
Каналы : 2 канала
Частота : 48,0 КГц
Метод сжатия : С потерями
Размер потока : 54,5 Мбайт (8%)
Выравнивание : Соединение по промежуткам
Продолжительность промежутка : 40 мс. (1,00 видеокадр)
Время предзагрузки промежутка : 504 ms

Релиз от:



   Похожие торренты   Торрент   Размер 
В этой теме нет новых непрочитанных сообщений. Под прицелом / Hunted [s01] (2012) WEB-DLRip | NewStudio

123 | 20

5.47 ГБ

В этой теме нет новых непрочитанных сообщений. Под прицелом / Hunted [S01] (2012) WEB-DL 720p | NewStudio

2 | 4

8.06 ГБ

В этой теме нет новых непрочитанных сообщений. Под прицелом любви (2012) WEB-DLRip-AVC

38 | 6

1.67 ГБ

В этой теме нет новых непрочитанных сообщений. Hunted: Кузня демонов / Hunted: The Demon's Forge (2011) PC | Lossless RePack

2 | 2

4.96 ГБ

В этой теме нет новых непрочитанных сообщений. Hunted: Кузня демонов / Hunted: The Demon's Forge (2011) PC | RePack от Fenixx

35 | 5

4.89 ГБ

В этой теме нет новых непрочитанных сообщений. Hunted: Кузня демонов / Hunted: The Demon's Forge (2011) PC | RePack от R.G. Catalyst

65 | 6

4.66 ГБ

В этой теме нет новых непрочитанных сообщений. Hunted: Кузня демонов / Hunted: The Demon's Forge (2011) PC | RePack от R.G. Механики

174 | 35

4.34 ГБ




Вы не можете начинать темы
Вы не можете отвечать на сообщения
Вы не можете редактировать свои сообщения
Вы не можете удалять свои сообщения
Вы не можете добавлять вложения

Перейти:  
Для Мосгорсуда, Роскомнадзора и рекламодателей: mosgorsud-torrent[собачка]yandex.ru
 Вход
ppkBB3cker v.2 © 2008-2014 @ PPK
[ Time : 0.595s | 15 Queries | GZIP : Off ]

Торрент трекер RUTOR.IN, Не можете зайти на rutor.org? Какой новый адрес рутор? Какое зеркало рутор? Не работает rutor.org и зеркала? Тогда наш торрент специально для вас. Rutor.in неофициальное зеркало rutor. В случае если у Вас заблокирован rutor или вдруг Вы не можете на него зайти, то Вы без труда сможете скачать бесплатно и без рекламы последние новинки кино, игр, сериалов и прочего у нас, на Rutor.in. Не нужно использовать прокси, чтобы зайти на рутор, достаточно воспользоваться нашим ресурсом. Все новые фильмы, игры, сериалы, книги и музыка за 2013 и 2014 годы через торрент бесплатно. Скачивайте фильмы в хорошем качестве, игры для пк, xbox, playstation без регистрации. У нас вы найдете новые Зарубежные сериалы и Русские сериалы 2013, 2014, 2015 годов. Оставайтесь с нами, качайте любимые фильмы, игры, сериалы, книги и музыку.
cron