img image001 image001 image001 image001 image001 image001 image001 image001 image001 image001 image001 image001 image001 image001 image001

Planets Sun Sun Sun
Статистика раздачи
Автор: Снежана | Размер: 12.78 ГБ | Добавлен: 25 июл 2013
Раздают: 9    Качают: 12
Скачать торрент
Скачать торрент
Описание торрента

СообщениеДобавлено: 25 июл 2013 

#77

Название: Блудливая Калифорния
Оригинальное название: Californication
Год выпуска: 2012
Страна: США
Жанр: комедия, драма
Продолжительность: 12 х ~ 00:29:00
Перевод: Профессиональный (многоголосый, закадровый) - NovaFilm
Автор перевода: Dara
Субтитры: нет
Режиссер: Том Капинос

В ролях: Дэвид Духовны, Наташа МакЭлхоун, Мадлен Мартин, Эван Хэндлер, Памела Адлон, Мадлен Зима, Каллум Кейт Ренни, Рэйчел Майнер, Карла Галло, Ева Амурри

Описание: После трех лет в Нью-Йорке, где всё было просто и не было обязательств, писатель Хэнк Муди возвращается в Калифорнию. У его бывшей — новый муж и домик за белым забором, у дочери- новый парень. А что ждет Хэнка в Лос-Анджелесе?



Качество: HDTV 720р, WEB-DL 720р
Формат: MKV
Видео кодек: H.264
Аудио кодек: AC3
Видео: 1280Ч720 (1.78:1), V_MPEG4/ISO/AVC, 23.976 fps, 4544 kbps avg, 0,20 bit/pixel
Аудио rus: 48 kHz, Audio Coding 3, 5.1 @ 384 kbps
Аудио eng: 48 kHz, Audio Coding 3, 5.1 @ 384 kbps

01. Из Нью-Йорка в Лос-Анджелес / JFK to LAX
02. Путь кулака / The Way of the Fist
03. Мальчики и девочки / Boys & Girls
04. В ожидании чуда / Waiting for the Miracle
05. Ночной патруль / The Ride Along
06. Песня о любви / Love Song
07. Снова за старое / Here I Go Again
08. Грязь / Raw
09. В кино / At the Movies
10. Извращенцы и шлюхи / Perverts & Whores
11. Вечеринка / The Party
12. Ад не самое плохое место / Hell Ain't a Bad Place to Be
General
Unique ID : 224725781154717588951843360349252796317 (0xA9109C725F10F02ABAD2FEC9DBD8BF9D)
Complete name : D:californication.s05e01.hdtv.720p.rus.eng
Format : Matroska
Format version : Version 2
File size : 1.09 GiB
Duration : 29mn 27s
Overall bit rate : 5 311 Kbps
Encoded date : UTC 2012-01-12 18:50:50
Writing application : mkvmerge v4.0.0 ('The Stars were mine') сборка от Jun 6 2010 16:18:42
Writing library : libebml v1.0.0 libmatroska v1.0.0

Video
ID : 1
Format : AVC
Format/Info : Advanced Video Codec
Format profile : High@L4.1
Format settings, CABAC : Yes
Format settings, ReFrames : 6 frames
Codec ID : V_MPEG4/ISO/AVC
Duration : 29mn 27s
Bit rate : 4 544 Kbps
Width : 1 280 pixels
Height : 720 pixels
Display aspect ratio : 16:9
Frame rate : 23.976 fps
Color space : YUV
Chroma subsampling : 4:2:0
Bit depth : 8 bits
Scan type : Progressive
Bits/(Pixel*Frame) : 0.206
Stream size : 935 MiB (84%)
Title : Californication - Season 5, Episode 1: JFK to LAX ("Из Нью-Йорка в Лос-Анджелес")
Writing library : x264 core 116 r2074 2641b9e
Encoding settings : cabac=1 / ref=6 / deblock=1:-3:-3 / analyse=0x3:0x133 / me=umh / subme=6 / psy=1 / psy_rd=1.00:0.00 / mixed_ref=1 / me_range=24 / chroma_me=1 / trellis=2 / 8x8dct=1 / cqm=0 / deadzone=21,11 / fast_pskip=1 / chroma_qp_offset=-4 / threads=3 / sliced_threads=0 / nr=0 / decimate=1 / interlaced=0 / bluray_compat=0 / constrained_intra=0 / bframes=3 / b_pyramid=0 / b_adapt=2 / b_bias=0 / direct=3 / weightb=1 / open_gop=0 / weightp=2 / keyint=250 / keyint_min=23 / scenecut=40 / intra_refresh=0 / rc_lookahead=40 / rc=2pass / mbtree=1 / bitrate=4544 / ratetol=1.0 / qcomp=0.60 / qpmin=10 / qpmax=51 / qpstep=4 / cplxblur=20.0 / qblur=0.5 / ip_ratio=1.40 / aq=1:1.00
Language : English

Audio #1
ID : 2
Format : AC-3
Format/Info : Audio Coding 3
Mode extension : CM (complete main)
Codec ID : A_AC3
Duration : 29mn 27s
Bit rate mode : Constant
Bit rate : 384 Kbps
Channel(s) : 6 channels
Channel positions : Front: L C R, Side: L R, LFE
Sampling rate : 48.0 KHz
Bit depth : 16 bits
Compression mode : Lossy
Stream size : 80.9 MiB (7%)
Title : Dolby Digital 5.1 @ 384 kbps
Language : Russian

Audio #2
ID : 3
Format : AC-3
Format/Info : Audio Coding 3
Mode extension : CM (complete main)
Codec ID : A_AC3
Duration : 29mn 27s
Bit rate mode : Constant
Bit rate : 384 Kbps
Channel(s) : 6 channels
Channel positions : Front: L C R, Side: L R, LFE
Sampling rate : 48.0 KHz
Bit depth : 16 bits
Compression mode : Lossy
Delay relative to video : 29ms
Stream size : 80.9 MiB (7%)
Title : Dolby Digital 5.1 @ 384 kbps
Language : English
Complete name : D:Californication Season 5 NovaFilmcalifornication.s05e10.webdl.720p.rus.eng.
Format : Matroska
Format version : Version 2
File size : 985 MiB
Duration : 28mn 8s
Overall bit rate : 4 892 Kbps
Encoded date : UTC 2012-12-15 21:29:20
Writing application : mkvmerge v4.0.0 ('The Stars were mine') сборка от Jun 6 2010 16:18:42
Writing library : libebml v1.0.0 libmatroska v1.0.0

Video
ID : 1
Format : AVC
Format/Info : Advanced Video Codec
Format profile : High@L3.1
Format settings, CABAC : No
Format settings, ReFrames : 2 frames
Format settings, GOP : N=1
Codec ID : V_MPEG4/ISO/AVC
Duration : 28mn 8s
Bit rate : 4 027 Kbps
Width : 1 280 pixels
Height : 720 pixels
Display aspect ratio : 16:9
Frame rate mode : Constant
Frame rate : 23.976 fps
Color space : YUV
Chroma subsampling : 4:2:0
Bit depth : 8 bits
Scan type : Progressive
Bits/(Pixel*Frame) : 0.182
Stream size : 811 MiB (82%)
Title : Californication - Season 5, Episode 10: Perverts and Whores
Language : English
Default : Yes
Forced : No
Color primaries : BT.709
Transfer characteristics : BT.709
Matrix coefficients : BT.709

Audio #1
ID : 2
Format : AC-3
Format/Info : Audio Coding 3
Mode extension : CM (complete main)
Format settings, Endianness : Big
Codec ID : A_AC3
Duration : 28mn 8s
Bit rate mode : Constant
Bit rate : 384 Kbps
Channel(s) : 6 channels
Channel positions : Front: L C R, Side: L R, LFE
Sampling rate : 48.0 KHz
Bit depth : 16 bits
Compression mode : Lossy
Stream size : 77.3 MiB (8%)
Title : Dolby Digital 5.1 @ 384 kbps
Language : Russian
Default : Yes
Forced : No

Audio #2
ID : 3
Format : AC-3
Format/Info : Audio Coding 3
Mode extension : CM (complete main)
Format settings, Endianness : Big
Codec ID : A_AC3
Duration : 28mn 8s
Bit rate mode : Constant
Bit rate : 384 Kbps
Channel(s) : 6 channels
Channel positions : Front: L C R, Side: L R, LFE
Sampling rate : 48.0 KHz
Bit depth : 16 bits
Compression mode : Lossy
Stream size : 77.3 MiB (8%)
Title : Dolby Digital 5.1 @ 384 kbps
Language : English
Default : No
Forced : No

Text
ID : 4
Format : ASS
Codec ID : S_TEXT/ASS
Codec ID/Info : Advanced Sub Station Alpha
Compression mode : Lossless
Title : Forced
Language : Russian
Default : Yes
Forced : Yes

Релиз от:



   Похожие торренты   Торрент   Размер 
В этой теме нет новых непрочитанных сообщений. Блудливая Калифорния / Californication [S05] (2012) HDTVRip, WEB-DLRip | NovaFilm

60 | 8

4.15 ГБ

В этой теме нет новых непрочитанных сообщений. Блудливая Калифорния / Californication [S04] (2011) HDTVRip от NovaFilm

112 | 10

2.94 ГБ

В этой теме нет новых непрочитанных сообщений. Блудливая Калифорния / Californication [S06] (2013) HDTVRip | NovaFilm

87 | 34

3.51 ГБ

В этой теме нет новых непрочитанных сообщений. Блудливая Калифорния / Californication [S07] (2014) HDTVRip | NewStudio & NovaFilm

437 | 102

3.95 ГБ

В этой теме нет новых непрочитанных сообщений. Блудливая Калифорния / Californication [S4] (2011) HDTVRip 720p от NovaFilm

35 | 4

13.12 ГБ

В этой теме нет новых непрочитанных сообщений. Блудливая Калифорния / Californication [S06] (2013) HDTVRip 720p | NovaFilm

39 | 5

12.88 ГБ

В этой теме нет новых непрочитанных сообщений. Блудливая Калифорния / Californication [S01-07] (2007-2014) HDTVRip, WEB-DLRip | NovaFilm

630 | 460

24.51 ГБ




Вы не можете начинать темы
Вы не можете отвечать на сообщения
Вы не можете редактировать свои сообщения
Вы не можете удалять свои сообщения
Вы не можете добавлять вложения

Перейти:  
Для Мосгорсуда, Роскомнадзора и рекламодателей: mosgorsud-torrent[собачка]yandex.ru
 Вход
ppkBB3cker v.2 © 2008-2014 @ PPK
[ Time : 0.051s | 18 Queries | GZIP : Off ]

cron