img image001 image001 image001 image001 image001 image001 image001 image001 image001 image001 image001 image001 image001 image001 image001

Planets Sun Sun Sun
Статистика раздачи
Автор: Снежана | Размер: 6.77 ГБ | Добавлен: 25 июл 2013
Раздают: 0    Качают: 2
Скачать торрент
Скачать торрент
Описание торрента

СообщениеДобавлено: 25 июл 2013 

#77
Год выпуска: 2007
Страна: Россия
Производство: Ментор Синема

Жанр: мелодрама, комедия
Продолжительность: 8 серий ~ 360 мин.
Субтитры: нет.

Режиссёр: Фархот Абдуллаев

В ролях: Валерий Золотухин, Сергей Загребнев, Лариса Гузеева, Дмитрий Поднозов, Кристина Бабушкина, Ирина Линдт, Валерий Баринов...

Описание:Григорий Курехин — мелкий предприниматель, занимающийся производством пластиковой посуды, умер в больнице на радость конкурентам. Единственный сын и наследник покойного — двадцатилетний, достаточно инфантильный Артём — категорически отказался включиться в незавершенную игру папы. Артём не желает продолжать отца ни в чём. Но Курехин-старший не спешит на тот свет: в результате переселения души он загадочным образом трансформируется в Гарсиа — случайного приятеля своего сына, бесшабашного гитариста из электрички. И тут начинается настоящая Жизнь! Только в новом качестве Курехин находит общий язык с сыном! У самого же Гарсиа вдруг складываются весьма забавные отношения со своей «совестью»: они постоянно ругаются, Гарсиа начинает изобретать способы, чтобы в нужный момент отвязаться от «непрошенного гостя»..





Исходник: DVD9
Тип релиза: 2хDVD5
Контейнер: DVD Video

Видео: PAL 16x9 (480х576) VBR ~ 2569 kbps
Аудио: 48 kHz, AC3, 2/0 (L,R) ch, 192 kbps

Меню: статичное
Доп. материалы: нет
Названия серий: нет
Title: Millioner.ponevole
Size: 6.77 Gb ( 7 103 804,00 KBytes ) - DVD-9
Enabled regions: 1, 2, 3, 4, 5, 6, 7, 8

VTS_01 :
Play Length: 00:42:23+00:43:26+00:43:46+00:44:18+00:43:34+00:44:06+00:44:03+00:44:24
Video: PAL 4:3 (480x576) VBR
Audio:
English, AC3, 2/0 (L,R) ch, 192 kbps, Delay 0 mSec

VTS_02 :
Play Length: 00:00:22
Video: PAL 4:3 (720x576) VBR
Audio:
English (Dolby AC3, 2 ch)

VTS_03 :
Play Length: 00:00:16
Video: PAL 16:9 (720x576) VBR, Auto Letterboxed
Audio:
English (Dolby AC3, 2 ch)

Общее
Полное имя : Millioner.ponevole.DVD9VIDEO_TSVTS_01_1.VOB
Формат : MPEG-PS
Размер файла : 1024 Мбайт
Продолжительность : 8 м. 24 с.
Режим общего битрейта : Переменный
Общий поток : 17,0 Мбит/сек

Видео
Идентификатор : 224 (0xE0)
Формат : MPEG Video
Версия формата : Version 2
Профиль формата : Main@Main
Параметр BVOP формата : Да
Параметр матрицы формата : По умолчанию
Параметр GOP формата : M=4, N=12
Продолжительность : 8 м. 24 с.
Вид битрейта : Переменный
Битрейт : 16,5 Мбит/сек
Ширина : 480 пикселей
Высота : 576 пикселей
Соотношение сторон : 0,833
Частота кадров : 25,000 кадров/сек
Цветовое пространство : YUV
Субдискретизация насыщенности : 4:2:0
Битовая глубина : 8 бит
Тип развёртки : Прогрессивная
Метод сжатия : С потерями
Бит/(Пиксели*Кадры) : 2.387
Размер потока : 992 Мбайт (97%)

Аудио
Идентификатор : 189 (0xBD)-128 (0x80)
Формат : AC-3
Формат/Информация : Audio Coding 3
Расширение режима : CM (complete main)
Режим смешивания : DVD-Video
Продолжительность : 8 м. 23 с.
Вид битрейта : Постоянный
Битрейт : 192 Кбит/сек
Каналы : 2 канала
Расположение каналов : Front: L R
Частота : 48,0 КГц
Битовая глубина : 16 бит
Метод сжатия : С потерями
Размер потока : 11,5 Мбайт (1%)

Меню







   Похожие торренты   Торрент   Размер 
В этой теме нет новых непрочитанных сообщений. Миллионер поневоле [01-08 из 08] (2007) DVD9 от Youtracker

2 | 2

6.77 ГБ

В этой теме нет новых непрочитанных сообщений. Миллионер поневоле [01-08] (2007) DVDRip

43 | 12

4.36 ГБ

В этой теме нет новых непрочитанных сообщений. Миллионер поневоле / Mr. Deeds (2002) BDRip-AVC

97 | 3

2.26 ГБ

В этой теме нет новых непрочитанных сообщений. Миллионер поневоле / Mr. Deeds (2002) DVDRip

20 | 4

700 МБ

В этой теме нет новых непрочитанных сообщений. Миллионер поневоле / Mr. Deeds (2002) DVDRip | КПК от Generalfilm

9 | 1

366.76 МБ

В этой теме нет новых непрочитанных сообщений. Миллионер поневоле / Mr. Deeds (2002) BDRip 720p

32 | 4

5.11 ГБ

В этой теме нет новых непрочитанных сообщений. Миллионер поневоле / Mr. Deeds (2002) BDRip 1080p

9 | 5

11.24 ГБ




Вы не можете начинать темы
Вы не можете отвечать на сообщения
Вы не можете редактировать свои сообщения
Вы не можете удалять свои сообщения
Вы не можете добавлять вложения

Перейти:  
Для Мосгорсуда, Роскомнадзора и рекламодателей: mosgorsud-torrent[собачка]yandex.ru
 Вход
ppkBB3cker v.2 © 2008-2014 @ PPK
[ Time : 0.043s | 16 Queries | GZIP : Off ]

cron