img image001 image001 image001 image001 image001 image001 image001 image001 image001 image001 image001 image001 image001 image001 image001

Planets Sun Sun Sun
Статистика раздачи
Автор: Снежана | Размер: 21.25 ГБ | Добавлен: 25 июл 2013
Раздают: 0    Качают: 1
Скачать торрент
Скачать торрент
Описание торрента

СообщениеДобавлено: 25 июл 2013 

#77

Название: Воздействие / Грабь награбленное
Оригинальное название: Leverage
Год выхода: 2012
Жанр: Криминал, детектив, драма
Режиссер: Марк Роскин, Дин Девлин, Джонатан Фрейкс
В ролях: Тимоти Хаттон, Джина Беллман, Кристиан Кейн, Бэт Рисграф, Элдис Ходж, Джери Райан, Марк Шеппард, Шон Гудел, Роберт Бланш, Пит Робертсон

Описание: Нейт Форд, бывший следователь страховой компании, возглавляет команду, в которую входят: компьютерный мошенник Хардисон, воровка и вообще безбашенная особа Паркер, актриса и мошенница Софи и специалист широкого профиля Эллиот. Эта команда помогает людям пострадавшим от рук сильных мира сего, а попросту — воров.

Страна: США
Студия: Electric Entertainment
Продолжительность: 15 x ~ 00:45:00
Перевод: Профессиональный (многоголосый, закадровый) LostFilm
Cубтитры: Нет



Качество: WEB-DL 720p
Формат: MKV
Видео кодек: H.264 (AVC)
Аудио кодек: AC3
Видео: 1280x720 at 23.976 fps, MPEG-4 AVC, ~4000 kbps avg, ~0.190 bit/pixel
Аудио Rus: 48 kHz, AC3 Dolby Digital, 3/2 (L,C,R,l,r) + LFE ch, ~384 kbps avg
Аудио Eng: 48 kHz, AC3 Dolby Digital, 3/2 (L,C,R,l,r) + LFE ch, ~384 kbps avg

Сезон полностью. Сериал закрыт.

01 - "Дело о большой пташке / The (Very) Big Bird Job"
02 - "Дело о подаче / The Blue Line Job"
03 - "Дело о первом контакте / The First Contact Job"
04 - "Дело о французских связях / The French Connection Job"
05 - "Дело о подборе ключей / The Gimme a K Street Job"
06 - "Дело о Д.Б. Купере / The D.B. Cooper Job"
07 - "Дело о настоящей ненастоящей машине / The Real Fake Car Job"
08 - "Дело о подбитом крыле / The Broken Wing Job"
09 - "Дело о провокации / The Rundown Job"
10 - "Дело о подтасовке / The Frame-Up Job"
11 - "Дело об очень низких ценах / The Low Low Price Job"
12 - "Дело о белом кролике / The White Rabbit Job"
13 - "Дело о штопоре / The Corkscrew Job"
14 - "Игрушечное дело / The Toy Job"
15 - "Дело о долгом прощании / The Long Good-bye Job"
Формат : Matroska
Размер файла : 1,41 Гбайт
Продолжительность : 41 м.
Общий поток : 4811 Кбит/сек
Дата кодирования : UTC 2012-12-15 17:42:28
Программа кодирования : mkvmerge v4.2.0 ('No Talking') сборка от Jul 28 2010 18:38:23
Библиотека кодирования : libebml v1.0.0 + libmatroska v1.0.0

Видео
Идентификатор : 1
Формат : AVC
Формат/Информация : Advanced Video Codec
Профиль формата : High@L3.1
Параметр CABAC формата : Да
Параметр ReFrames формата : 4 кадра
Параметры GOP формата : M=3, N=6
Идентификатор кодека : V_MPEG4/ISO/AVC
Продолжительность : 41 м.
Битрейт : 4041 Кбит/сек
Ширина : 1280 пикс.
Высота : 720 пикс.
Соотношение сторон : 16:9
Частота кадров : 23,976 кадр/сек
Цветовое пространство : YUV
Подвыборка цветности : 4:2:0
Битовая глубина : 8 бит
Тип развёртки : Прогрессивная
Бит/(Пиксели*Кадры) : 0.183
Размер потока : 1,16 Гбайт (82%)
Библиотека кодирования : x264 core 112 r1834 a51816a
Настройки программы : cabac=1 / ref=1 / deblock=1:0:0 / analyse=0x3:0x113 / me=hex / subme=7 / psy=1 / psy_rd=1.00:0.00 / mixed_ref=0 / me_range=16 / chroma_me=1 / trellis=1 / 8x8dct=1 / cqm=0 / deadzone=21,11 / fast_pskip=1 / chroma_qp_offset=-2 / threads=6 / sliced_threads=0 / nr=0 / decimate=1 / interlaced=0 / constrained_intra=0 / bframes=3 / b_pyramid=2 / b_adapt=1 / b_bias=0 / direct=1 / weightb=1 / open_gop=0 / weightp=2 / keyint=250 / keyint_min=25 / scenecut=40 / intra_refresh=0 / rc_lookahead=40 / rc=2pass / mbtree=1 / bitrate=4041 / ratetol=1.0 / qcomp=0.60 / qpmin=0 / qpmax=51 / qpstep=4 / cplxblur=20.0 / qblur=0.5 / ip_ratio=1.40 / aq=1:1.00

Аудио #1
Идентификатор : 2
Формат : AC-3
Формат/Информация : Audio Coding 3
Расширение режима : CM (complete main)
Идентификатор кодека : A_AC3
Продолжительность : 41 м.
Вид битрейта : Постоянный
Битрейт : 384 Кбит/сек
Каналы : 2 канала
Расположение каналов : Front: L R
Частота : 44,1 КГц
Битовая глубина : 16 бит
Метод сжатия : С потерями
Размер потока : 115 Мбайт (8%)

Аудио #2
Идентификатор : 3
Формат : AC-3
Формат/Информация : Audio Coding 3
Расширение режима : CM (complete main)
Идентификатор кодека : A_AC3
Продолжительность : 41 м.
Вид битрейта : Постоянный
Битрейт : 384 Кбит/сек
Каналы : 2 канала
Расположение каналов : Front: L R
Частота : 48,0 КГц
Битовая глубина : 16 бит
Метод сжатия : С потерями
Размер потока : 115 Мбайт (8%)

Релиз от:



   Похожие торренты   Торрент   Размер 
В этой теме нет новых непрочитанных сообщений. Воздействие / Грабь награбленное / Leverage [S05] (2012) WEB-DLRip | LostFilm

0 | 4

7.6 ГБ

В этой теме нет новых непрочитанных сообщений. Воздействие / Грабь награбленное / Leverage [S01-05] (2008-2012) WEB-DLRip | P | LostFilm

29 | 58

27.98 ГБ

В этой теме нет новых непрочитанных сообщений. Воздействие / Грабь награбленное / Leverage [S01-S05] (2008-2012) WEBDLRip-AVC 720р l LostFilm

9 | 6

51.11 ГБ

В этой теме нет новых непрочитанных сообщений. Грабь награбленное / Воздействие / Leverage [S01] (2008) WEB-DLRip | ТВ3

11 | 7

5.53 ГБ

В этой теме нет новых непрочитанных сообщений. Воздействие / Leverage [S04] (2011) WEB-DL 720p | LostFilm

1 | 1

25.87 ГБ

В этой теме нет новых непрочитанных сообщений. Воздействие / Leverage [S01-05] (2008-2012) HDTVRip, WEB-DLRip | LostFilm

14 | 7

32.53 ГБ

В этой теме нет новых непрочитанных сообщений. Воздействие / Leverage [S04] (2011) WEB-DLRip | LostFilm

13 | 3

8.47 ГБ




Вы не можете начинать темы
Вы не можете отвечать на сообщения
Вы не можете редактировать свои сообщения
Вы не можете удалять свои сообщения
Вы не можете добавлять вложения

Перейти:  
Для Мосгорсуда, Роскомнадзора и рекламодателей: mosgorsud-torrent[собачка]yandex.ru
 Вход
ppkBB3cker v.2 © 2008-2014 @ PPK
[ Time : 0.421s | 15 Queries | GZIP : Off ]

Торрент трекер RUTOR.IN, Не можете зайти на rutor.org? Какой новый адрес рутор? Какое зеркало рутор? Не работает rutor.org и зеркала? Тогда наш торрент специально для вас. Rutor.in неофициальное зеркало rutor. В случае если у Вас заблокирован rutor или вдруг Вы не можете на него зайти, то Вы без труда сможете скачать бесплатно и без рекламы последние новинки кино, игр, сериалов и прочего у нас, на Rutor.in. Не нужно использовать прокси, чтобы зайти на рутор, достаточно воспользоваться нашим ресурсом. Все новые фильмы, игры, сериалы, книги и музыка за 2013 и 2014 годы через торрент бесплатно. Скачивайте фильмы в хорошем качестве, игры для пк, xbox, playstation без регистрации. У нас вы найдете новые Зарубежные сериалы и Русские сериалы 2013, 2014, 2015 годов. Оставайтесь с нами, качайте любимые фильмы, игры, сериалы, книги и музыку.