img image001 image001 image001 image001 image001 image001 image001 image001 image001 image001 image001 image001 image001 image001 image001

Planets Sun Sun Sun
Статистика раздачи
Автор: Снежана | Размер: 2.41 ГБ | Добавлен: 25 июл 2013
Раздают: 2    Качают: 2
Скачать торрент
Скачать торрент
Описание торрента

СообщениеДобавлено: 25 июл 2013 

#77

Название: Охи - вздохи
Оригинальное название: Exes & Ohs
Год выпуска: 2009
Страна: США
Жанр: мелодрама, комедия
Продолжительность: 08 х ~ 00:22:00
Перевод: Профессиональный (многоголосый, закадровый) - Baibako
Субтитры: Нет
Режиссер: Гари Харви, Джеймс Дженн, Мина Шум

В ролях: Мишель Парадайз, Марни Элтон, Анджела Фезерстоун, Меган Кэвэна, Дженнифер Спенс и др

Описание: Комедийный сериал о романтических похождениях Дженнифер и ее подруг-лесбиянок в суетливом Сиэтле. Одну из подруг, пытающуюся стать рок-звездой, сыграла актриса открытая лесбиянка Хизер Матараццо. Сериал комедийный, веселый, непринужденный, основанный на короткометражном фильме "Десять правил: Гид по выживанию для лесбиянок" (The Ten Rules: A Lesbian Survival Guide).



Перевод: Сергей Серов
Озвучка: Татьяна Оболевич, Юлия Котурбаш, Лира Грим и Алексей Кузнецов
Работа со звуком: Татьяна Оболевич
Обложка: Татьяна Оболевич

Качество: DVDRip
Формат: AVI
Видео кодек: XviD
Аудио кодек: MP3
Видео: MPEG-4 Visual Advanced Simple@L5 1521 Кбит/сек 640x352 23,976 кадра/сек
Аудио rus: MP3, 48.0 KHz, 2 ch, 192 Kbps, CBR
Аудио eng: MP3, 48.0 KHz, 2 ch, 192 Kbps, CBR

Сезон полностью.

01. Fish in a Barrel
02. Two Bridge Girls and a Pair of Bunz
03. The Big 'O'
04. Girl-Frogs & Wet T-Shirts
05. #2.5
06. The Happy Homemaker vs. The Cougar
07. I Do. Do I?
08. Sleepless in Seattle
Формат : AVI
Формат/Информация : Audio Video Interleave
Размер файла : 296 Мбайт
Продолжительность : 21 м.
Общий поток : 1912 Кбит/сек

Видео
Идентификатор : 0
Формат : MPEG-4 Visual
Профиль формата : Advanced Simple@L5
Параметр BVOP формата : 2
Параметр QPel формата : Нет
Параметр GMC формата : Без точки перехода
Параметр матрицы формата : Default (H.263)
Идентификатор кодека : XVID
Идентификатор кодека/Подсказка : XviD
Продолжительность : 21 м.
Битрейт : 1521 Кбит/сек
Ширина : 640 пикс.
Высота : 352 пикс.
Соотношение сторон : 16:9
Частота кадров : 23,976 кадр/сек
Цветовое пространство : YUV
Подвыборка цветности : 4:2:0
Битовая глубина : 8 бит
Тип развёртки : Прогрессивная
Метод сжатия : С потерями
Бит/(Пиксели*Кадры) : 0.282
Размер потока : 235 Мбайт (80%)
Библиотека кодирования : XviD 1.2.1 (UTC 2008-12-04)

Аудио #1
Идентификатор : 1
Формат : MPEG Audio
Версия формата : Version 1
Профиль формата : Layer 3
Режим : Joint stereo
Расширение режима : MS Stereo
Идентификатор кодека : 55
Идентификатор кодека/Подсказка : MP3
Продолжительность : 21 м.
Вид битрейта : Постоянный
Битрейт : 192 Кбит/сек
Каналы : 2 канала
Частота : 48,0 КГц
Метод сжатия : С потерями
Размер потока : 29,7 Мбайт (10%)
Выравнивание : Соединение по промежуткам
Продолжительность промежутка : 167 мс. (4,00 видеокадра)
Время предзагрузки промежутка : 216 ms
Заголовок : Exes.And.Ohs.s02e01.DVDRip.x264.Rus.Eng.Baibako.tv.mp4_track_1_russian_audio
Библиотека кодирования : LAME3.99r
Настройки программы : -m j -V 4 -q 2 -lowpass 18.6 -b 192

Аудио #2
Идентификатор : 2
Формат : MPEG Audio
Версия формата : Version 1
Профиль формата : Layer 3
Режим : Joint stereo
Расширение режима : MS Stereo
Идентификатор кодека : 55
Идентификатор кодека/Подсказка : MP3
Продолжительность : 21 м.
Вид битрейта : Постоянный
Битрейт : 192 Кбит/сек
Каналы : 2 канала
Частота : 48,0 КГц
Метод сжатия : С потерями
Размер потока : 29,7 Мбайт (10%)
Выравнивание : Соединение по промежуткам
Продолжительность промежутка : 167 мс. (4,00 видеокадра)
Время предзагрузки промежутка : 216 ms
Заголовок : Exes.And.Ohs.s02e01.DVDRip.x264.Rus.Eng.Baibako.tv.mp4_track_2_english_audio
Библиотека кодирования : LAME3.99r
Настройки программы : -m j -V 4 -q 2 -lowpass 18.6 -b 192


Релиз от: по заказу



   Похожие торренты   Торрент   Размер 
В этой теме нет новых непрочитанных сообщений. Охи-вздохи / Exes & Ohs [S01] (2007) DVDRip | Baibako

2 | 2

1.21 ГБ

В этой теме нет новых непрочитанных сообщений. Бывшие / The Exes [S01] (2011) HDTVRip | L1

4 | 3

1.8 ГБ

В этой теме нет новых непрочитанных сообщений. Бывшие / The Exes [S02] (2012) WEB-DLRip | P2

5 | 1

3.11 ГБ

В этой теме нет новых непрочитанных сообщений. Бывшие / The Exes [03х01] (2013) HDTVRip

0 | 1

412.97 МБ

В этой теме нет новых непрочитанных сообщений. Бывшие / The Exes [03x01] (2013) WEB-DLRip | F-TRAIN

7 | 1

308.58 МБ

В этой теме нет новых непрочитанных сообщений. Бывшие / The Exes [03x01-04] (2013) WEB-DLRip | F-TRAIN

0 | 1

1.22 ГБ

В этой теме нет новых непрочитанных сообщений. Бывшие / The Exes [03х04-14] (2013) HDTVRip | L1 | Юстас

19 | 27

2.39 ГБ




Вы не можете начинать темы
Вы не можете отвечать на сообщения
Вы не можете редактировать свои сообщения
Вы не можете удалять свои сообщения
Вы не можете добавлять вложения

Перейти:  
Для Мосгорсуда, Роскомнадзора и рекламодателей: mosgorsud-torrent[собачка]yandex.ru
 Вход
ppkBB3cker v.2 © 2008-2014 @ PPK
[ Time : 0.557s | 14 Queries | GZIP : Off ]

Торрент трекер RUTOR.IN, Не можете зайти на rutor.org? Какой новый адрес рутор? Какое зеркало рутор? Не работает rutor.org и зеркала? Тогда наш торрент специально для вас. Rutor.in неофициальное зеркало rutor. В случае если у Вас заблокирован rutor или вдруг Вы не можете на него зайти, то Вы без труда сможете скачать бесплатно и без рекламы последние новинки кино, игр, сериалов и прочего у нас, на Rutor.in. Не нужно использовать прокси, чтобы зайти на рутор, достаточно воспользоваться нашим ресурсом. Все новые фильмы, игры, сериалы, книги и музыка за 2013 и 2014 годы через торрент бесплатно. Скачивайте фильмы в хорошем качестве, игры для пк, xbox, playstation без регистрации. У нас вы найдете новые Зарубежные сериалы и Русские сериалы 2013, 2014, 2015 годов. Оставайтесь с нами, качайте любимые фильмы, игры, сериалы, книги и музыку.