img image001 image001 image001 image001 image001 image001 image001 image001 image001 image001 image001 image001 image001 image001 image001

Planets Sun Sun Sun
Статистика раздачи
Автор: Снежана | Размер: 5.48 ГБ | Добавлен: 25 июл 2013
Раздают: 10    Качают: 5
Скачать торрент
Скачать торрент
Описание торрента

СообщениеДобавлено: 25 июл 2013 

#77

Информация о фильме
Название: Дамское счастье
Оригинальное название: The Paradise
Год выхода: 2012
Жанр: драма
Режиссер: Дэвид Друри, Марк Йобст, Сьюзэн Талли
В ролях: Джоанна Вандерхем, Эмун Эллиотт, Питер Уайт, Мэтью МакНалти, Стивен Уайт, Соня Кессиди, Руби Бентал

О фильме:
Экранизация одноименного романа Эмиля Золя, действие которого перенесено из Парижа в Англию 1890-х годов и рассказывает историю юной девушки Дениз, которая попадает в большой город без каких-либо средств к существованию и устраивается на работу в магазин для дам. Очень скоро она понимает, что за восхитительной витриной скрывается мир интриг, любовных связей и борьбы за власть.

Страна: Великобритания
Студия: BBC Productions, Masterpiece co-production
Продолжительность: ~ 60 минут серия
Перевод: Профессиональный (многоголосый, закадровый) [BaibaKo] / Оригинал (английский)
Озвучка: Светлана Доманова, Татьяна Оболевич, Олекса Мельник и Сергей Корчак
Перевод: vipere
Монтаж: Игорь Лихо
Рип: LegendKiev

Файл
Кодек: XviD / MP3
Качество: WEBDLRip
Видео: 720x400 (16:9), 23.976 fps, ~1300 kbps, ~0.190 bit/pixel
Звук:
Аудио Rus: 48 kHz, 2 ch, ~128 kbps |BaibaKo|
Аудио Eng: 48 kHz, 2 ch, ~128 kbps |Original|

Общее
Полное имя : G:The.Paradise.s01.WEB-DLRip.Rus.Eng.BaibaKoThe.Paradise.s01e01.WEB-DLRip.Rus.Eng.BaibaKo.avi
Формат : AVI
Формат/Информация : Audio Video Interleave
Размер файла : 701 Мбайт
Продолжительность : 59 м.
Общий поток : 1660 Кбит/сек
Программа кодирования : VirtualDubMod 1.5.10.2 (build 2540/release)
Библиотека кодирования : VirtualDubMod build 2540/release

Видео
Идентификатор : 0
Формат : MPEG-4 Visual
Профиль формата : Advanced Simple@L5
Параметр BVOP формата : 1
Параметр QPel формата : Нет
Параметр GMC формата : Без точки перехода
Параметр матрицы формата : Выборочная
Идентификатор кодека : XVID
Идентификатор кодека/Подсказка : XviD
Продолжительность : 59 м.
Битрейт : 1390 Кбит/сек
Ширина : 720 пикселей
Высота : 400 пикселей
Соотношение сторон : 16:9
Частота кадров : 25,000 кадров/сек
Цветовое пространство : YUV
Субдискретизация насыщенности : 4:2:0
Битовая глубина : 8 бит
Тип развёртки : Прогрессивная
Метод сжатия : С потерями
Бит/(Пиксели*Кадры) : 0.193
Размер потока : 587 Мбайт (84%)
Библиотека кодирования : XviD 73

Аудио #1
Идентификатор : 1
Формат : MPEG Audio
Версия формата : Version 1
Профиль формата : Layer 3
Режим : Joint stereo
Расширение режима : MS Stereo
Идентификатор кодека : 55
Идентификатор кодека/Подсказка : MP3
Продолжительность : 59 м.
Вид битрейта : Постоянный
Битрейт : 128 Кбит/сек
Каналы : 2 канала
Частота : 48,0 КГц
Метод сжатия : С потерями
Размер потока : 54,0 Мбайт (8%)
Выравнивание : Соединение по промежуткам
Продолжительность промежутка : 40 мс. (1,00 видеокадр)
Время предзагрузки промежутка : 504 мс.
Библиотека кодирования : LAME3.99r
Настройки программы : -m j -V 4 -q 2 -lowpass 17 -b 128

Аудио #2
Идентификатор : 2
Формат : MPEG Audio
Версия формата : Version 1
Профиль формата : Layer 3
Режим : Joint stereo
Идентификатор кодека : 55
Идентификатор кодека/Подсказка : MP3
Продолжительность : 59 м.
Вид битрейта : Постоянный
Битрейт : 128 Кбит/сек
Каналы : 2 канала
Частота : 48,0 КГц
Метод сжатия : С потерями
Размер потока : 54,0 Мбайт (8%)
Выравнивание : Соединение по промежуткам
Продолжительность промежутка : 40 мс. (1,00 видеокадр)
Время предзагрузки промежутка : 504 мс.
Библиотека кодирования : LAME3.99r
Настройки программы : -m j -V 4 -q 2 -lowpass 17 -b 128



   Похожие торренты   Торрент   Размер 
В этой теме нет новых непрочитанных сообщений. Дамское счастье / The Paradise [S01] (2012) WEBDLRip | Домашний

3 | 4

5.25 ГБ

В этой теме нет новых непрочитанных сообщений. Дамское счастье / The Paradise [S01-02] (2012-2013) WEB-DLRip | BaibaKo

3 | 3

12.49 ГБ

В этой теме нет новых непрочитанных сообщений. Дамское счастье / The Paradise [S02] (2013) WEB-DLRip | BaibaKo

5 | 11

6.22 ГБ

В этой теме нет новых непрочитанных сообщений. Дамское счастье / The Paradise [02х01 из 08] (2013) WEB-DL 720p | BaibaKo

0 | 2

1.84 ГБ

В этой теме нет новых непрочитанных сообщений. Дамское счастье / The Paradise [02х01-02 из 08] (2013) WEB-DL 1080p | BaibaKo

0 | 2

4.52 ГБ

В этой теме нет новых непрочитанных сообщений. Джесси Cтоун: Тайны парадиза / Jesse Stone: Lost in Paradise (Роберт Хармон) [2015, драма, криминал, WEBDLRip] MVO

1030 | 29

1.37 ГБ

В этой теме нет новых непрочитанных сообщений. Paradise Lost - Paradise Lost / Tragic Idol (2012) MP3

13 | 10

105.23 МБ




Вы не можете начинать темы
Вы не можете отвечать на сообщения
Вы не можете редактировать свои сообщения
Вы не можете удалять свои сообщения
Вы не можете добавлять вложения

Перейти:  
Для Мосгорсуда, Роскомнадзора и рекламодателей: mosgorsud-torrent[собачка]yandex.ru
 Вход
ppkBB3cker v.2 © 2008-2014 @ PPK
[ Time : 0.064s | 15 Queries | GZIP : Off ]

Торрент трекер RUTOR.IN, Не можете зайти на rutor.org? Какой новый адрес рутор? Какое зеркало рутор? Не работает rutor.org и зеркала? Тогда наш торрент специально для вас. Rutor.in неофициальное зеркало rutor. В случае если у Вас заблокирован rutor или вдруг Вы не можете на него зайти, то Вы без труда сможете скачать бесплатно и без рекламы последние новинки кино, игр, сериалов и прочего у нас, на Rutor.in. Не нужно использовать прокси, чтобы зайти на рутор, достаточно воспользоваться нашим ресурсом. Все новые фильмы, игры, сериалы, книги и музыка за 2013 и 2014 годы через торрент бесплатно. Скачивайте фильмы в хорошем качестве, игры для пк, xbox, playstation без регистрации. У нас вы найдете новые Зарубежные сериалы и Русские сериалы 2013, 2014, 2015 годов. Оставайтесь с нами, качайте любимые фильмы, игры, сериалы, книги и музыку.