img image001 image001 image001 image001 image001 image001 image001 image001 image001 image001 image001 image001 image001 image001 image001

Planets Sun Sun Sun
Статистика раздачи
Автор: Снежана | Размер: 1.45 ГБ | Добавлен: 25 июл 2013
Раздают: 0    Качают: 2
Скачать торрент
Скачать торрент
Описание торрента

СообщениеДобавлено: 25 июл 2013 

«Ох уж эти мужчины!»



#77
Год выпуска: 2004
Страна: Россия
Студия: Кинокомпания CTB
Жанр: мелодрама, комедия, приключения
Продолжительность: 02:38:11 (6 ~ 00:26:25)

Перевод: не требуется
Субтитры: нет
Оригинальная аудиодорожка: русский

Режиссер: Валерий Зеленский

В ролях: Сергей Астахов, Арсений Ковальский, Любовь Тихомирова, Олег Каменщиков, Антон Макарский, Ольга Родионова, Эвклид Кюрдзидис, Анжела Голубева, Мария Юхананова, Андрей Кузнецов-Вечеслов (VII), Евгения Лютая...

Описание: Эротический Декамерон, или мужские откровения. Ох уж эти мужчины! Они давали клятву никогда не жениться, но связали себя узами брака. Теперь они вспоминают о былых похождениях! Самые откровенные признания четырех мачо в пикантной комедии по мотивам романов Ги де Мопассана…





Исходник: DVD9 R5
Тип релиза: DVDRip
Контейнер: AVI

Видео: 688x512 (4:3), 25 fps, XviD ~ 1178 kbps avg, 0.134 bit/pixel
Аудио: 48 kHz, MP3, 2 ch, 128.00 kbps

Раздача от:
01. Аллума
02. Мадлен
03. Анриэтта
04. Анэтта
05. Мари
06. Иветта

Общее
Полное имя : Lubovnye.avantyri.2004.DVDRip.avi
Формат : AVI
Формат/Информация : Audio Video Interleave
Размер файла : 257 Мбайт
Продолжительность : 27 м.
Общий поток : 1316 Кбит/сек
Программа кодирования : VirtualDubMod 1.5.10.3 | www.virtualdub-fr.org || (build 2550/release)
Библиотека кодирования : VirtualDubMod build 2550/release

Видео
Идентификатор : 0
Формат : MPEG-4 Visual
Профиль формата : Advanced Simple@L5
Параметр BVOP формата : 1
Параметр QPel формата : Нет
Параметр GMC формата : Без точки перехода
Параметр матрицы формата : Выборочная
Идентификатор кодека : XVID
Идентификатор кодека/Подсказка : XviD
Продолжительность : 27 м.
Битрейт : 1178 Кбит/сек
Ширина : 688 пикселей
Высота : 512 пикселей
Соотношение сторон : 4:3
Частота кадров : 25,000 кадров/сек
Цветовое пространство : YUV
Субдискретизация насыщенности : 4:2:0
Битовая глубина : 8 бит
Тип развёртки : Прогрессивная
Метод сжатия : С потерями
Бит/(Пиксели*Кадры) : 0.134
Размер потока : 230 Мбайт (90%)
Библиотека кодирования : XviD 65

Аудио
Идентификатор : 1
Формат : MPEG Audio
Версия формата : Version 1
Профиль формата : Layer 3
Идентификатор кодека : 55
Идентификатор кодека/Подсказка : MP3
Продолжительность : 27 м.
Вид битрейта : Постоянный
Битрейт : 128 Кбит/сек
Каналы : 2 канала
Частота : 48,0 КГц
Метод сжатия : С потерями
Размер потока : 25,0 Мбайт (10%)
Выравнивание : Соединение по промежуткам
Продолжительность промежутка : 40 мс. (1,00 видеокадр)
Время предзагрузки промежутка : 504 мс.
Библиотека кодирования : L3.99r
Настройки программы : -m s -V 4 -q 2 -lowpass 17 -b 128





   Похожие торренты   Торрент   Размер 
В этой теме нет новых непрочитанных сообщений. Любовные авантюры [01-06 из 06] (2004) DVDRip-AVC от Youtracker

15 | 20

2.18 ГБ

В этой теме нет новых непрочитанных сообщений. Любовные авантюры [01-06 из 06] (2004) DVDRip от КинозалSAT

5 | 1

2.05 ГБ

В этой теме нет новых непрочитанных сообщений. Любовные авантюры [1-6 из 6] (2004) WEB-DLRip от Files-х

93 | 27

1.92 ГБ

В этой теме нет новых непрочитанных сообщений. Черкашин Н.А. - Авантюры открытого моря(2004) PDF

37 | 2

116.12 МБ

В этой теме нет новых непрочитанных сообщений. Любовные раны / Love Hurts (2009) DVDRip

1 | 3

695.82 МБ

В этой теме нет новых непрочитанных сообщений. Любовные грезы / Love Dream (1988) DVDRip-AVC | A

68 | 17

2.69 ГБ

В этой теме нет новых непрочитанных сообщений. Любовные записки / Love Fiction / 러브픽션 (2012) DVDRip

1 | 2

2.05 ГБ




Вы не можете начинать темы
Вы не можете отвечать на сообщения
Вы не можете редактировать свои сообщения
Вы не можете удалять свои сообщения
Вы не можете добавлять вложения

Перейти:  
Для Мосгорсуда, Роскомнадзора и рекламодателей: mosgorsud-torrent[собачка]yandex.ru
 Вход
ppkBB3cker v.2 © 2008-2014 @ PPK
[ Time : 0.042s | 14 Queries | GZIP : Off ]

Торрент трекер RUTOR.IN, Не можете зайти на rutor.org? Какой новый адрес рутор? Какое зеркало рутор? Не работает rutor.org и зеркала? Тогда наш торрент специально для вас. Rutor.in неофициальное зеркало rutor. В случае если у Вас заблокирован rutor или вдруг Вы не можете на него зайти, то Вы без труда сможете скачать бесплатно и без рекламы последние новинки кино, игр, сериалов и прочего у нас, на Rutor.in. Не нужно использовать прокси, чтобы зайти на рутор, достаточно воспользоваться нашим ресурсом. Все новые фильмы, игры, сериалы, книги и музыка за 2013 и 2014 годы через торрент бесплатно. Скачивайте фильмы в хорошем качестве, игры для пк, xbox, playstation без регистрации. У нас вы найдете новые Зарубежные сериалы и Русские сериалы 2013, 2014, 2015 годов. Оставайтесь с нами, качайте любимые фильмы, игры, сериалы, книги и музыку.