img image001 image001 image001 image001 image001 image001 image001 image001 image001 image001 image001 image001 image001 image001 image001

Planets Sun Sun Sun
Статистика раздачи
Автор: Снежана | Размер: 2.54 ГБ | Добавлен: 25 июл 2013
Раздают: 0    Качают: 3
Скачать торрент
Скачать торрент
Описание торрента

СообщениеДобавлено: 25 июл 2013 

#77

Название: Гравитация / Притяжение
Оригинальное название: Gravity
Год выпуска: 2010
Страна: США
Жанр: Драма, комедия
Продолжительность: 10 х ~ 00:30:00
Перевод: Любительский (двухголосый, закадровый) - студия Хамстер
Субтитры: Нет
Режиссер: Джил Франклин

В ролях: Кристен Риттер, Иван Сергий, Брайан Беррибби, Роберто Пурвис

Описание: Сериал повествует о группе людей, которые пытались покончить с собой, но сейчас стараются воспользоваться вторым шансом. Для того, что бы помогать друг-другу они организовывают встречи, на которых делятся своими переживаниями и проблемами. Каждый эпизод "Gravity" рассказывает историю одного персонажа и то, как он пытался совершить самоубийство, однако «это комедия не о суициде, это черная комедия о людях, для которых попытка совершить самоубийство является частью их жизни».



Перевод: Нотабинойд и Cacophony
Озвучка: Мирра и Хамстер
Работа со звуком: Kiberline
Рип видео: Kiberline

Присутствует ненормативная лексика.



Качество: HDTVRip, WEB-DLRip
Формат: AVI
Видео кодек: XviD
Аудио кодек: MP3
Видео 01-09 серии: XviD, ~ 1040 Кбит/с, 720x400
Видео 10 серия: XviD, ~ 1040 Кбит/с, 624x352
Аудио rus: MP3, 48.0 KHz, 2 ch, 128 Кбит/с
Аудио eng: MP3, 48.0 KHz, 2 ch, 128 Кбит/с

Сезон полностью.

01. Suicide Dummies
02. Namaste MF
03. Cold Swim Away
04. Old People Creep Me Out
05. Love at First Suicide
06. Dogg Day Afternoon
07. Let It Mellow
08. Damn Skippy
09. Calemnity
10. Are We All Just Dead?
Формат : AVI
Формат/Информация : Audio Video Interleave
Профиль формата : OpenDML
Настройки формата : rec
Размер файла : 280 Мбайт
Продолжительность : 30 м.
Общий поток : 1302 Кбит/сек
Программа кодирования : AVI-Mux GUI 1.17.8, Aug 30 2008 12:36:58

Видео
Идентификатор : 0
Формат : MPEG-4 Visual
Профиль формата : Advanced Simple@L5
Параметр BVOP формата : 2
Параметр QPel формата : Нет
Параметр GMC формата : Без точки перехода
Параметр матрицы формата : Default (H.263)
Идентификатор кодека : XVID
Идентификатор кодека/Подсказка : XviD
Продолжительность : 30 м.
Битрейт : 1032 Кбит/сек
Ширина : 720 пикс.
Высота : 400 пикс.
Соотношение сторон : 16:9
Частота кадров : 23,976 кадр/сек
Цветовое пространство : YUV
Подвыборка цветности : 4:2:0
Битовая глубина : 8 бит
Тип развёртки : Прогрессивная
Метод сжатия : С потерями
Бит/(Пиксели*Кадры) : 0.149
Размер потока : 222 Мбайт (79%)
Библиотека кодирования : XviD 1.2.1 (UTC 2008-12-04)

Аудио #1
Идентификатор : 1
Формат : MPEG Audio
Версия формата : Version 1
Профиль формата : Layer 3
Режим : Joint stereo
Расширение режима : MS Stereo
Идентификатор кодека : 55
Идентификатор кодека/Подсказка : MP3
Продолжительность : 30 м.
Вид битрейта : Постоянный
Битрейт : 128 Кбит/сек
Каналы : 2 канала
Частота : 48,0 КГц
Метод сжатия : С потерями
Размер потока : 27,6 Мбайт (10%)
Выравнивание : Соединение по промежуткам
Продолжительность промежутка : 24 мс. (0,58 видеокадр)
Время предзагрузки промежутка : 192 ms

Аудио #2
Идентификатор : 2
Формат : MPEG Audio
Версия формата : Version 1
Профиль формата : Layer 3
Идентификатор кодека : 55
Идентификатор кодека/Подсказка : MP3
Продолжительность : 30 м.
Вид битрейта : Постоянный
Битрейт : 128 Кбит/сек
Каналы : 2 канала
Частота : 48,0 КГц
Метод сжатия : С потерями
Размер потока : 27,6 Мбайт (10%)
Выравнивание : Соединение по промежуткам
Продолжительность промежутка : 24 мс. (0,58 видеокадр)
Время предзагрузки промежутка : 192 ms
Библиотека кодирования : LAME3.99r
Настройки программы : -m s -V 4 -q 2 -lowpass 17 -b 128




Релиз от: Студия Хамстер



   Похожие торренты   Торрент   Размер 
В этой теме нет новых непрочитанных сообщений. Мобильный воин ГАНДАМ: Притяжение к Фронту / Mobile Suit Gundam MS IGLOO: Gravity Of The Battlefront [01-03 из 03] (2008) HDTVRip

4 | 2

1.84 ГБ

В этой теме нет новых непрочитанных сообщений. Гравитация / Gravity (2013) WEB-DLRip | КПК | от -=HD-NET=-

18 | 2

371.62 МБ

В этой теме нет новых непрочитанных сообщений. Гравитация / Gravity (2013) WEB-DLRip AVC | iTunes

57 | 2

1.45 ГБ

В этой теме нет новых непрочитанных сообщений. Гравитация / Gravity (2013) WEB-DLRip | iTunes

54 | 2

1.45 ГБ

В этой теме нет новых непрочитанных сообщений. Гравитация / Gravity (2013) WEB-DLRip от New-Team | Чистый звук

6 | 2

746.43 МБ

В этой теме нет новых непрочитанных сообщений. Гравитация / Gravity (2013) WEB-DLRip от New-Team | Чистый звук

6 | 3

1.45 ГБ

В этой теме нет новых непрочитанных сообщений. Гравитация / Gravity (2013) WEB-DLRip от Scarabey | D | Чистый звук

17 | 2

744.86 МБ




Вы не можете начинать темы
Вы не можете отвечать на сообщения
Вы не можете редактировать свои сообщения
Вы не можете удалять свои сообщения
Вы не можете добавлять вложения

Перейти:  
Для Мосгорсуда, Роскомнадзора и рекламодателей: mosgorsud-torrent[собачка]yandex.ru
 Вход
ppkBB3cker v.2 © 2008-2014 @ PPK
[ Time : 0.053s | 14 Queries | GZIP : Off ]

Торрент трекер RUTOR.IN, Не можете зайти на rutor.org? Какой новый адрес рутор? Какое зеркало рутор? Не работает rutor.org и зеркала? Тогда наш торрент специально для вас. Rutor.in неофициальное зеркало rutor. В случае если у Вас заблокирован rutor или вдруг Вы не можете на него зайти, то Вы без труда сможете скачать бесплатно и без рекламы последние новинки кино, игр, сериалов и прочего у нас, на Rutor.in. Не нужно использовать прокси, чтобы зайти на рутор, достаточно воспользоваться нашим ресурсом. Все новые фильмы, игры, сериалы, книги и музыка за 2013 и 2014 годы через торрент бесплатно. Скачивайте фильмы в хорошем качестве, игры для пк, xbox, playstation без регистрации. У нас вы найдете новые Зарубежные сериалы и Русские сериалы 2013, 2014, 2015 годов. Оставайтесь с нами, качайте любимые фильмы, игры, сериалы, книги и музыку.