img image001 image001 image001 image001 image001 image001 image001 image001 image001 image001 image001 image001 image001 image001 image001

Planets Sun Sun Sun
Статистика раздачи
Автор: Снежана | Размер: 381.77 МБ | Добавлен: 25 июл 2013
Раздают: 1    Качают: 3
Скачать торрент
Скачать торрент
Описание торрента

СообщениеДобавлено: 25 июл 2013 

#77
От создателей "Дневников Вампира"

Информация о фильме
Название: Венди
Оригинальное название: Wendy
Год выхода: 2011

Жанр: фэнтези, драма
Режиссер: Трип Рид
В ролях: Меган Йётте Мартин, Тайлер Блэкберн, Дэвид Барньер-Уэллс, Рэйчел ДиПилло, Николас Шон Гомез, Даймонд Николь Ландин

О фильме: После пропажи двух своих братьев, четыре года назад, Венди начали сниться странные сны, которые впоследствии стали преследовать её и в реальности ...

Страна: USA
Студия: Alloy Entertainment
Продолжительность: 6 х ~ 00:06

Перевод: Любительский двухголосый закадровый - [LexStudio & DreamRecords]
Перевод текста: Анна Швыдко
Озвучка: LeX и Lesta.
Монтаж и сведение звука: LeX

Файл
Кодек: AVI Xvid
Качество: WEBRip
Видео: 656x368 25fps, 1 070 Kbps
Звук: MP3 48000Hz stereo 128kbps
Субтитры: Нет

MediaInfo
General
Complete name : не важноWendy.2011.WEBRipWendy.s01e06.LexStudio.DreamRecords.avi
Format : AVI
Format/Info : Audio Video Interleave
File size : 44.9 MiB
Duration : 5mn 51s
Overall bit rate : 1 070 Kbps
Writing application : VirtualDubMod 1.5.4.1 (build 2178/release)
Writing library : VirtualDubMod build 2178/release

Video
ID : 0
Format : MPEG-4 Visual
Format profile : Advanced Simple@L5
Format settings, BVOP : No
Format settings, QPel : No
Format settings, GMC : No warppoints
Format settings, Matrix : Custom
Codec ID : XVID
Codec ID/Hint : XviD
Duration : 5mn 51s
Bit rate : 934 Kbps
Width : 656 pixels
Height : 368 pixels
Display aspect ratio : 16:9
Frame rate : 25.000 fps
Color space : YUV
Chroma subsampling : 4:2:0
Bit depth : 8 bits
Scan type : Progressive
Compression mode : Lossy
Bits/(Pixel*Frame) : 0.155
Stream size : 39.2 MiB (87%)
Writing library : XviD 1.2.1 (UTC 2008-12-04)

Audio
ID : 1
Format : MPEG Audio
Format version : Version 1
Format profile : Layer 3
Mode : Joint stereo
Mode extension : MS Stereo
Codec ID : 55
Codec ID/Hint : MP3
Duration : 5mn 51s
Bit rate mode : Constant
Bit rate : 128 Kbps
Channel(s) : 2 channels
Sampling rate : 48.0 KHz
Compression mode : Lossy
Stream size : 5.37 MiB (12%)
Alignment : Aligned on interleaves
Interleave, duration : 80 ms (2.00 video frames)
Interleave, preload duration : 504 ms
Writing library : LAME3.98r
Encoding settings : -m j -V 4 -q 2 -lowpass 17 -b 128




   Похожие торренты   Торрент   Размер 
В этой теме нет новых непрочитанных сообщений. Венди / Wendy [S01] (2011) WEBRip 720p | L2

0 | 2

449.76 МБ

В этой теме нет новых непрочитанных сообщений. Дорогая Венди / Dear Wendy (2005) DVDRip

2 | 4

702.49 МБ

В этой теме нет новых непрочитанных сообщений. Венди и Люси / Wendy and Lucy (2008) DVDRip

13 | 4

1.37 ГБ

В этой теме нет новых непрочитанных сообщений. Венди Ву: Королева в бою / Wendy Wu: Homecoming Warrior (2006) WEB-DLRip | D, P2

18 | 1

1.53 ГБ

В этой теме нет новых непрочитанных сообщений. Венди и Люси / Wendy and Lucy (2008) HDRip-AVC от MAGNAT231 | P2

48 | 4

1.07 ГБ

В этой теме нет новых непрочитанных сообщений. Венди Ву: Королева в бою / Wendy Wu: Homecoming Warrior (2006) WEB-DL 720p | D, P2

7 | 0

3.02 ГБ

В этой теме нет новых непрочитанных сообщений. Дорогая Венди / Dear Wendy (2005) DVDRip от Scarabey | P2

56 | 8

744.69 МБ




Вы не можете начинать темы
Вы не можете отвечать на сообщения
Вы не можете редактировать свои сообщения
Вы не можете удалять свои сообщения
Вы не можете добавлять вложения

Перейти:  
Для Мосгорсуда, Роскомнадзора и рекламодателей: mosgorsud-torrent[собачка]yandex.ru
 Вход
ppkBB3cker v.2 © 2008-2014 @ PPK
[ Time : 0.025s | 14 Queries | GZIP : On ]

Торрент трекер RUTOR.IN, Не можете зайти на rutor.org? Какой новый адрес рутор? Какое зеркало рутор? Не работает rutor.org и зеркала? Тогда наш торрент специально для вас. Rutor.in неофициальное зеркало rutor. В случае если у Вас заблокирован rutor или вдруг Вы не можете на него зайти, то Вы без труда сможете скачать бесплатно и без рекламы последние новинки кино, игр, сериалов и прочего у нас, на Rutor.in. Не нужно использовать прокси, чтобы зайти на рутор, достаточно воспользоваться нашим ресурсом. Все новые фильмы, игры, сериалы, книги и музыка за 2013 и 2014 годы через торрент бесплатно. Скачивайте фильмы в хорошем качестве, игры для пк, xbox, playstation без регистрации. У нас вы найдете новые Зарубежные сериалы и Русские сериалы 2013, 2014, 2015 годов. Оставайтесь с нами, качайте любимые фильмы, игры, сериалы, книги и музыку.